<?xml version="1.0" standalone="no"?>
<!DOCTYPE svg PUBLIC "-//W3C//DTD SVG 1.1//EN" "http://www.w3.org/Graphics/SVG/1.1/DTD/svg11.dtd" >
<svg xmlns="http://www.w3.org/2000/svg">
<metadata>Generated by IcoMoon</metadata>
<defs>
<font id="sxz" horiz-adv-x="1024">
<font-face units-per-em="1024" ascent="960" descent="-64" />
<missing-glyph horiz-adv-x="1024" />
<glyph unicode="&#x20;" horiz-adv-x="512" d="" />
<glyph unicode="&#xe600;" glyph-name="evernote" d="M887.757 773.615c0 58.88-88.678 65.382-88.678 65.382l-208.333 13.107c0 0-4.454 56.678-46.541 76.39-42.086 19.61-88.371 13.619-121.651 13.312-33.28-0.358-41.114-42.752-41.114-82.79 0-39.987 0.717-86.221 0.717-115.2 0-52.122-22.886-74.189-80.179-74.189h-118.118c-33.024 2.099-58.726-3.277-58.726-30.003 0-26.778 38.861-254.618 92.211-307.2 30.976-30.515 220.416-51.917 260.301-51.917s26.573 117.811 37.683 117.811c11.11 0 23.245-66.509 86.118-82.074 62.771-15.718 146.637-12.8 151.091-57.498 5.786-58.982 11.11-135.27-27.699-140.698l-87.859-3.482c-60.211 4.301-44.032 70.093-17.459 70.093s39.885 0.973 39.885 0.973l3.328 71.987c0 0-137.882 16.282-143.718-76.698-5.376-84.992 9.216-125.082 19.917-133.786 10.701-8.806 29.235-25.805 198.093-25.805 237.926 0 150.733 693.402 150.733 752.282zM790.528 465.749c-9.318-10.035-43.11 16.384-75.366 16.384-32.307 0-67.123-17.101-75.315-5.786-8.192 11.213 7.475 101.888 68.301 101.888s91.802-102.605 82.381-112.486zM297.165 780.834c0 11.725 2.97 152.781 2.97 152.781l-179.456-176.128c0 0 124.006 0 148.378 0 24.371 0.051 28.109 11.725 28.109 23.347z" />
<glyph unicode="&#xe601;" glyph-name="renren" d="M516.932 338.16c4.847-3.082 8.813-9.69 8.813-14.537 0-5.287 12.336-34.809 27.317-66.533 16.302-33.925 50.227-81.070 84.596-117.641 31.724-33.488 70.936-69.618 87.682-79.749 11.858-6.943 4.905-2.512 20.34-14.073l0.638-1.154c-72.783-41.885-149.149-58.358-232.41-60.464-72.298-0.259-143.015 16.841-208.336 47.387-8.786 4.11-17.046 9.26-25.569 13.889 4.673 5.926 12.022 9.598 18.388 13.53 16.302 10.134 55.518 45.384 87.682 78.428 36.57 38.335 66.973 80.633 84.156 117.204 14.541 31.724 29.082 64.328 32.164 73.137 3.086 8.813 9.694 13.66 14.541 10.575zM592.043 938.552c39.318-8.038 48.275-8.421 87.091-22.61 162.574-59.43 283.744-207.002 309.78-378.204 14.517-95.44 0.061-194.451-41.847-281.518-21.019-43.667-41.697-71.444-72.052-108.23-13.588 2.806-5.714 0.655-23.224 7.762-16.302 7.929-55.514 38.332-86.357 67.413-31.283 29.078-71.376 74.902-89.443 101.338-18.063 26.877-39.653 66.973-48.466 88.562-8.813 22.030-21.149 61.682-27.757 88.119-7.933 33.048-11.899 111.036-11.899 243.217zM429.541 935.94c2.959-62.566 3.27-92.491 3.437-114.463 0.444-58.532 0.478-117.101-0.061-175.63-0.393-42.875 0.635-88.46-6.117-130.98-3.727-23.484-4.622-24.757-10.325-44.524-9.254-29.082-25.996-70.939-36.57-92.529-11.015-22.030-37.891-63.887-59.924-93.409-22.030-29.078-63.887-70.496-93.406-92.085-29.522-21.589-61.245-41.858-70.939-45.384l-1.597-0.444c-29.471 32.932-54.115 69.895-73.288 109.725-84.47 175.479-53.641 387.198 77.449 531.446 52.019 57.238 154.89 115.531 190.481 128.276s74.315 24.361 80.862 19.999z" />
<glyph unicode="&#xe602;" glyph-name="douban" d="M926.918 934.384c32.734 0 59.276-26.542 59.276-59.276v-829.836c0-32.734-26.542-59.276-59.276-59.276h-829.836c-32.734 0-59.276 26.542-59.276 59.276v829.836c0 32.734 26.542 59.276 59.276 59.276zM176.654 795.99v-76.479h649.004v76.479zM217.719 656.044v-311.934h55.805l67.768-142.316h-184.033v-75.022h685.691v75.022h-188.723l68.673 142.316h60.778v311.934zM684.885 579.298v-161.096h-372.309v161.096zM570.771 201.794h-144.118l-67.031 142.316h279.822z" />
<glyph unicode="&#xe608;" glyph-name="linkedin" d="M185.769 598.987h163.103v-455.986h-163.103v455.986zM261.548 653.006c47.984 0 77.16 31.909 77.16 71.338-0.955 40.368-29.178 71.32-75.173 71.32-46.102 0-76.265-30.952-76.265-71.32 0-39.429 29.24-71.338 74.278-71.338zM673.65 607.48c-77.148 0-123.339-41.052-142.115-73.627h-2.838l-6.595 65.133h-124.081c1.911-32.559 16.090-91.476 16.090-148.785v-307.202h130.497v259.357c0 13.102 4.108 26.282 7.823 35.684 10.452 26.28 37.067 53.472 76.555 53.472 51.804 0 78.725-40.368 78.725-99.485v-249.027h130.479v265.935c-0.002 135.153-70.564 198.544-164.54 198.544z" />
<glyph unicode="&#xe60d;" glyph-name="question-fill" d="M511.979 951.332c-278.798 0-504.761-226.005-504.761-504.803s225.963-504.805 504.761-504.805c278.799 0 504.761 226.006 504.761 504.805s-225.962 504.803-504.761 504.803zM541.576 112.607h-83.215v80.588h83.215v-80.588zM698.414 520.691c-13.685-18.003-27.437-30.023-66.024-56.586-49.708-36.022-64.295-48.024-76.298-65.17-15.438-21.437-22.268-45.439-22.268-78.88 0-14.561 0.832-27.437 2.584-47.15h-73.712c3.415 20.588 3.415 27.44 3.415 55.735 0 44.563 9.419 72.878 31.69 103.735 17.167 22.292 25.753 30.022 75.461 64.291 30.855 20.587 45.442 32.563 59.128 46.274 18.92 20.586 29.168 44.608 29.168 71.169 0 64.295-57.44 108.902-138.005 108.902-55.778 0-99.464-18.878-127.735-54.901-14.587-18.853-21.437-34.273-30.855-70.293l-72.047 11.169c18.003 61.708 35.191 91.73 70.297 120.858 38.605 32.563 96.050 50.565 162.924 50.565 120.835 0 204.884-66.878 204.884-163.733-0.001-36.021-11.169-68.585-32.608-96.024z" />
<glyph unicode="&#xe900;" glyph-name="pause" d="M288 64h-128c-17.728 0-32 14.336-32 32v704c0 17.664 14.272 32 32 32h128c17.6 0 32-14.336 32-32v-704c0-17.664-14.4-32-32-32v0zM863.872 64h-127.872c-17.728 0-32 14.336-32 32v704c0 17.664 14.272 32 32 32h127.872c17.728 0 32.128-14.336 32.128-32v-704c0-17.664-14.4-32-32.128-32v0z" />
<glyph unicode="&#xe901;" glyph-name="app" d="M492.267 696.789l-15.701-27.499-53.568 32.192 15.701 27.52c8.619 15.189 27.648 20.288 42.411 11.392 14.827-8.917 19.776-28.416 11.157-43.605v0zM189.163 143.339l-54.827 29.845 266.773 491.947 54.827-29.845-266.773-491.947zM96.896 21.333l22.976 135.808 64.875-28.907-87.851-106.901zM837.952 362.475l-27.413 63.701h213.461v-63.701h-186.048zM389.995 426.197h275.2l27.413-63.701h-327.403l24.789 63.701zM0 362.475v63.701h224.256l-29.568-63.701h-194.688zM787.733 275.84l-322.795 566.208 53.291 32.619 322.795-566.229-53.291-32.597zM832.021 190.379l-37.696 50.624 49.259 38.699 37.76-50.603-49.323-38.72zM949.632 36.331c0 0-27.285 72.768-63.189 77.568-35.947 4.843-49.429 52.203-42.155 51.755l53.909 38.485c0.021-0.021 81.472-50.069 51.435-167.808v0z" />
<glyph unicode="&#xe902;" glyph-name="at" d="M554.453-7.211c-218.027-9.045-487.68 156.203-486.208 402.304 0.661 102.571 7.787 226.923 110.229 346.496 236.075 275.52 580.011 126.933 629.696 76.907 156.075-157.44 196.715-386.133-22.955-543.317-190.101-136.085-157.995 19.093-146.197 56.384-4.971-35.328 105.728 381.12 105.728 381.12l-42.304 21.12-25.451-90.304c-105.963 168.875-285.269 67.883-312.768 48-84.075-60.885-142.891-180.053-142.891-281.6 0-68.501 23.104-138.965 58.325-184.213 45.333-58.219 187.243-80.043 288.917 34.496 2.432-30.912 11.008-53.248 25.664-66.965-10.347 9.664 106.496-87.339 277.333 96 138.965 149.12 145.899 366.187 0.149 527.253-76.587 84.651-201.344 129.067-338.389 129.067-202.752 0-344.576-82.709-443.947-254.059-59.669-102.976-138.603-439.723 84.587-613.973 98.581-76.949 217.515-127.040 380.48-127.040 120.789 0 213.013 24.171 291.029 72.448 78.080 48.341 124.181 101.333 152.939 160.427h-42.283c-44.672-75.264-175.211-181.12-401.685-190.549v0zM604.629 381.163c-25.323-43.755-52.16-81.365-82.603-104.832-35.669-27.499-159.083-101.12-221.227-8.341-19.499 29.12-31.723 93.419-31.723 138.24 0 146.005 125.717 288.491 220.864 284.245 290.539-12.992 90.24-351.509 114.688-309.312v0z" />
<glyph unicode="&#xe903;" glyph-name="brush" d="M916.245 622.208c-114.539 25.963-215.616 0-215.616 0s71.872-78.229 107.84-99.563c-27.2-23.979-84.288-25.771-134.741-24.875-42.667-3.371-104.832 29.291-104.832 29.291 0.043 0 137.344-78.187 158.699-153.728-102.123 7.339-135.296-55.040-188.629 0-54.805-35.84-43.733 61.461-140.715-30.741-131.285-88.085-236.373-204.544-398.251-342.592 96.512 179.456 403.669 896 1024 896-134.464-120.747-127.040-207.531-107.755-273.792v0zM85.333 106.624c227.371 273.216 339.669 310.997 345.813 316.459 23.701 7.104 100.245 4.032 107.797 0 29.248-29.781 107.797-24.875 107.797-24.875s-14.336 21.632-80.875 74.667c-90.667 63.531-29.589 108.8 0 99.563 36.331-21.141 126.741-22.421 161.707-49.792-48.747 32.725-81.92 98.155-80.832 124.437 1.088 26.347 188.459 32.171 215.573 24.939-42.411 111.979 57.301 159.403 55.040 159.957-454.336-9.579-832.021-725.355-832.021-725.355v0z" />
<glyph unicode="&#xe904;" glyph-name="consult" d="M874.667 149.376h-213.291l-320.064-170.709v170.709h-191.979c-58.923 0-106.667 47.744-106.667 106.667v554.624c0 58.923 47.744 106.667 106.667 106.667h725.333c58.923 0 106.667-47.744 106.667-106.667v-554.624c0-58.923-47.744-106.667-106.667-106.667v0zM938.667 810.667c0 35.328-28.672 64.021-64 64.021h-725.333c-35.328 0-64.021-28.693-64.021-64.021v-554.624c0-35.413 28.693-64.043 64.021-64.043h234.688v-128l284.395 128h206.251c35.328 0 64 28.629 64 64.043v554.624zM703.957 618.688c-23.509 0-42.624 19.093-42.624 42.645 0 23.573 19.115 42.667 42.624 42.667 23.595 0 42.709-19.093 42.709-42.667 0-23.552-19.115-42.645-42.709-42.645v0zM733.632 490.645c-30.805-86.976-113.515-149.312-210.987-149.312h-21.312c-97.451 0-180.16 62.336-210.965 149.312h45.824c28.501-62.848 91.627-106.603 165.12-106.603h21.312c73.472 0 136.597 43.755 165.099 106.603h45.909zM320 618.688c-23.573 0-42.667 19.093-42.667 42.645 0 23.573 19.093 42.667 42.667 42.667 23.552 0 42.688-19.093 42.688-42.667 0-23.552-19.136-42.645-42.688-42.645v0z" />
<glyph unicode="&#xe905;" glyph-name="pencil2" d="M1016.171 830.955l-52.459-43.861-52.459 21.952 78.677 65.835c55.829-1.771 26.24-43.925 26.24-43.925v0zM308.053 194.368l-150.805-98.325 98.389 120.299 629.397 570.752 52.459-21.973-629.44-570.752zM67.392 852.437c-12.395 0-22.464-10.069-22.464-22.507v-763.84c0-12.459 10.069-22.507 22.464-22.507h763.904c12.416 0 22.464 10.048 22.464 22.507v516.736l44.949 44.928v-561.664c0-37.291-30.208-67.413-67.413-67.413h-763.904c-37.227 0-67.392 30.123-67.392 67.413v763.819c0 37.269 30.165 67.435 67.392 67.435h763.904c16.533 0 31.552-6.165 43.243-16.085l-43.243-28.821h-763.904z" />
<glyph unicode="&#xe906;" glyph-name="star-half" d="M768 341.333l85.333-405.333-341.333 213.291-341.333-213.291 85.333 405.333-256 234.667 362.667 42.667 149.333 341.333 149.333-341.333 362.667-42.667-256-234.667zM640 576l-128 298.645v-682.645l277.333-170.667-64.043 341.333 213.376 192-298.667 21.333z" />
<glyph unicode="&#xe907;" glyph-name="pause-sign" d="M512-64c-282.752 0-512 229.248-512 512s229.248 512 512 512c282.752 0 512-229.248 512-512s-229.248-512-512-512v0zM512 917.333c-259.179 0-469.333-210.091-469.333-469.333 0-259.179 210.155-469.333 469.333-469.333 259.2 0 469.333 210.176 469.333 469.333 0 259.243-210.133 469.333-469.333 469.333v0zM640 277.333h-21.333c-11.755 0-21.333 9.579-21.333 21.333v298.667c0 11.819 9.579 21.376 21.333 21.376h21.333c11.819 0 21.333-9.557 21.333-21.376v-298.667c0-11.755-9.515-21.333-21.333-21.333v0zM405.333 277.333h-21.333c-11.755 0-21.333 9.579-21.333 21.333v298.667c0 11.819 9.557 21.376 21.333 21.376h21.333c11.819 0 21.376-9.557 21.376-21.376v-298.667c-0.021-11.755-9.579-21.333-21.376-21.333v0z" />
<glyph unicode="&#xe908;" glyph-name="price" d="M490.643 483.023l-13.218-13.218c-3.659-3.64-9.578-3.64-13.218 0l-322.421 397.135c-3.64 3.64-3.64 9.559 0 13.218l13.218 13.181c3.659 3.64 9.578 3.64 13.218 0l322.439-397.098c3.64-3.659 3.64-9.578-0.019-13.218v0zM882.177 866.419l-321.245-395.978c-3.603-3.603-9.522-3.603-13.125 0l-13.181 13.181c-3.659 3.64-3.659 9.522 0 13.181l321.262 395.903c3.603 3.659 9.522 3.659 13.125 0l13.162-13.143c3.679-3.64 3.679-9.503 0-13.143v0zM839.144 448.149h-653.653c-5.171 0-9.354 4.183-9.354 9.315v18.669c0 5.171 4.183 9.354 9.354 9.354h653.653c5.135 0 9.335-4.183 9.335-9.354v-18.669c0-5.135-4.183-9.315-9.335-9.315v0zM839.144 261.38h-653.653c-5.171 0-9.354 4.2-9.354 9.354v18.669c0 5.135 4.183 9.315 9.354 9.315h653.653c5.135 0 9.335-4.183 9.335-9.315v-18.669c0-5.152-4.183-9.354-9.335-9.354v0zM521.651-0.066h-18.65c-5.152 0-9.354 4.144-9.354 9.315v448.215c0 5.171 4.2 9.354 9.354 9.354h18.65c5.135 0 9.315-4.183 9.315-9.354v-448.215c0-5.171-4.183-9.315-9.315-9.315v0z" />
<glyph unicode="&#xe909;" glyph-name="sigh" d="M512-64c-282.752 0-512 229.248-512 512s229.248 512 512 512c282.752 0 512-229.248 512-512s-229.248-512-512-512v0zM393.835 327.125c0.896-28.885 5.355-62.741 13.397-101.76 8.021-38.997 19.008-67.669 32.875-86.037 13.803-18.368 27.84-30.677 41.899-36.843 14.059-6.208 26.901-8.96 38.528-8.299 4.907 0 9.365 0.576 13.376 1.877 4.032 1.259 8.875 3.755 14.464 7.381s8.789 9.749 9.707 18.283c0.448 6.336-0.085 9.664-1.664 10.005-1.579 0.299-5.717-1.408-12.416-5.248s-13.376-5.077-20.096-3.84c-8.533 1.003-17.664 6.869-27.52 17.621-9.835 10.752-13.504 27.328-11.072 49.707 2.496 22.293 7.424 48.299 14.763 77.909s14.144 50.965 20.437 63.957l50.304 106.005 12.075 35.669v28.992l-13.461 16.128-30.827 8.107-52.928-7.125-48.96-34.24-29.504-51.328-13.376-106.923zM615.616 755.84l-39.829 34.347-55.829 12.267-55.061-12.267-39.893-34.347-14.485-46.613 14.485-46.635 39.893-33.749 55.061-12.885 55.829 12.885 39.829 33.749 14.549 46.635-14.549 46.613z" />
<glyph unicode="&#xe90a;" glyph-name="user-out" d="M874.667 85.333h-64l127.957 128h-458.624c-5.909 0-10.688 4.8-10.688 10.667v21.333c0 5.909 4.779 10.709 10.688 10.709h458.603l-127.915 128h64l149.312-149.376-149.333-149.333zM618.667 448c-37.76-38.251-44.587-72.128-37.632-100.373l-41.92-16.789c-9.408 32.96-8.277 89.045 62.955 158.507 0.085 0.192-4.331 0.32-11.989 0.448 30.869 47.211 49.92 108.928 49.92 171.541 0 129.6-81.173 213.355-181.333 213.355s-181.333-83.755-181.333-213.355c0-78.656 29.995-155.883 75.883-204.672 23.488-37.568 49.259-100.373 9.451-157.995-58.197-79.381-257.387-133.888-320-234.283 0-26.965 0-43.029 0-43.029h874.667c0-22.763-51.627-42.688-51.627-42.688s-798.869 0-824.512 0c-25.621 0-41.195 43.243-41.195 43.243s0 12.416 0 43.243c0 61.483 184.576 155.968 213.312 169.515 219.605 103.040 85.355 213.333 85.355 213.333 1.963 0 4.395 0 6.869 0-43.477 56.149-70.869 133.632-70.869 213.333 0 153.173 100.267 256 224 256 123.669 0 224-102.827 224-256 0-79.723-27.328-157.184-70.869-213.333 2.283 0 4.629 0 6.869 0v0z" />
<glyph unicode="&#xe90b;" glyph-name="voice-sign" d="M512-64c-282.752 0-512 229.248-512 512 0 282.773 229.248 512 512 512 282.795 0 512-229.227 512-512 0-282.752-229.205-512-512-512v0zM512 917.355c-259.179 0-469.333-210.133-469.333-469.355 0-259.179 210.176-469.333 469.333-469.333 259.221 0 469.333 210.155 469.333 469.333 0 259.221-210.133 469.355-469.333 469.355v0zM525.184 197.12l-33.707 33.685c79.957 39.637 135.083 121.899 135.083 217.195 0 95.339-55.083 177.579-135.083 217.195l33.707 33.707c87.573-49.408 146.816-143.147 146.816-250.901s-59.243-201.493-146.816-250.88v0zM344.896 448c0 19.499-7.915 37.12-20.715 49.92l37.397 37.397c22.315-22.357 36.139-53.227 36.139-87.317s-13.781-64.917-36.139-87.275l-37.355 37.312c12.757 12.8 20.672 30.464 20.672 49.963v0zM486.080 448c0 57.451-31.211 107.221-77.227 134.571l35.712 35.712c54.507-36.971 90.325-99.456 90.325-170.261 0-70.827-35.861-133.291-90.325-170.283l-35.755 35.797c46.059 27.285 77.269 77.013 77.269 134.464v0z" />
<glyph unicode="&#xe90c;" glyph-name="weixin" d="M853.333 384c0-23.573-19.093-42.667-42.667-42.667s-42.709 19.093-42.709 42.667 19.115 42.688 42.709 42.688 42.667-19.115 42.667-42.688v0zM923.712 134.507l14.912-134.507-124.992 78.165c-31.083-9.045-64.341-14.165-98.965-14.165-124.672 0-231.851 63.701-280.789 155.285 14.848 2.411 29.547 5.291 43.797 9.045 44.267-72.256 133.611-121.664 236.992-121.664 35.2 0 68.715 5.867 99.499 16.299 20.011-6.592 49.792-21.824 81.792-58.965-17.131 41.365-20.331 70.037-18.133 89.749 62.848 41.003 103.509 104.917 103.509 176.96 0 108.757-92.373 199.403-214.784 219.669 0.704 8.469 1.408 16.939 1.408 25.6 0 5.824-0.661 11.477-0.96 17.259 145.835-21.419 257.003-130.688 257.003-262.528 0-77.717-38.784-147.456-100.288-196.203v0zM362.645 256.043c-34.155 0-67.115 4.416-98.432 12.203l-178.901-97.579 33.771 168.832c-72.96 58.496-119.083 142.656-119.083 236.501 0 176.747 162.368 320 362.645 320 200.32 0 362.688-143.253 362.688-320 0-176.704-162.368-319.957-362.688-319.957v0zM362.645 853.333c-176.704 0-319.979-124.181-319.979-277.333 0-89.984 49.685-169.707 126.272-220.373-5.675-22.699-24.747-95.381-40.981-120.96 21.568 23.616 100.608 62.464 134.080 78.208 31.68-9.088 65.387-14.165 100.587-14.165 176.747 0 320.043 124.117 320.043 277.291 0 153.152-143.296 277.333-320.021 277.333v0zM490.645 640c-23.531 0-42.645 19.093-42.645 42.667s19.115 42.667 42.624 42.667c23.573 0 42.667-19.093 42.667-42.667s-19.072-42.667-42.645-42.667v0zM255.979 640c-23.531 0-42.645 19.093-42.645 42.667s19.115 42.667 42.624 42.667c23.595 0 42.709-19.072 42.709-42.667s-19.115-42.667-42.688-42.667v0z" />
<glyph unicode="&#xe90d;" glyph-name="project" d="M874.688 320c-82.475 0-149.355 66.88-149.355 149.312 0 82.475 66.88 149.355 149.355 149.355 82.432 0 149.312-66.88 149.312-149.355 0-82.432-66.88-149.312-149.312-149.312v0zM874.688 576c-58.965 0-106.688-47.723-106.688-106.688 0-58.923 47.723-106.645 106.688-106.645 58.923 0 106.645 47.723 106.645 106.645 0 58.965-47.723 106.688-106.645 106.688v0zM833.941 656.939c-33.451 51.456-78.976 94.187-132.331 124.651 1.429 9.515 2.411 19.179 2.411 29.056 0 6.315-0.32 12.608-0.917 18.773 74.56-37.547 136.576-96.363 178.219-168.405-2.24 0.064-4.437 0.32-6.677 0.32-13.973 0-27.563-1.557-40.704-4.395v0zM512-64c-82.475 0-149.355 66.88-149.355 149.312 0 82.475 66.88 149.355 149.355 149.355s149.355-66.88 149.355-149.355c0-82.432-66.88-149.312-149.355-149.312v0zM512 192c-58.901 0-106.688-47.723-106.688-106.688 0-58.923 47.787-106.645 106.688-106.645s106.688 47.723 106.688 106.645c0 58.965-47.787 106.688-106.688 106.688v0zM512 661.333c-82.475 0-149.355 66.88-149.355 149.312 0 82.475 66.88 149.355 149.355 149.355s149.355-66.88 149.355-149.355c0-82.432-66.88-149.312-149.355-149.312v0zM512 917.333c-58.901 0-106.688-47.723-106.688-106.688 0-58.923 47.787-106.645 106.688-106.645s106.688 47.723 106.688 106.645c0 58.965-47.787 106.688-106.688 106.688v0zM320.896 66.965c-89.152 44.843-160.277 119.872-200.235 211.627 6.891-0.811 13.803-1.259 20.992-1.259 8.683 0 17.237 0.725 25.664 1.749 34.027-69.184 88.235-126.741 155.051-164.757-1.451-9.472-2.368-19.093-2.368-28.971-0.021-6.187 0.341-12.352 0.896-18.389v0zM189.291 655.595c-14.955 3.52-30.421 5.589-46.4 5.696 41.685 71.744 103.552 130.325 178.005 167.765-0.555-6.059-0.917-12.203-0.917-18.411 0-9.877 0.917-19.499 2.368-28.971-53.888-30.656-99.499-74.155-133.056-126.080v0zM298.667 469.312c0-82.432-66.88-149.312-149.312-149.312-82.475 0-149.355 66.88-149.355 149.312 0 82.475 66.88 149.355 149.355 149.355 82.432 0 149.312-66.88 149.312-149.355v0zM42.667 469.312c0-58.923 47.723-106.645 106.688-106.645 58.923 0 106.645 47.723 106.645 106.645 0 58.965-47.723 106.688-106.645 106.688-58.965 0-106.688-47.723-106.688-106.688v0zM856.299 278.251c6.037-0.555 12.139-0.917 18.347-0.917 9.984 0 19.648 0.981 29.205 2.432-39.808-92.309-111.232-167.808-200.747-212.821 0.555 6.037 0.917 12.203 0.917 18.389 0 9.899-0.917 19.499-2.368 28.971 66.496 37.867 120.491 95.104 154.645 163.947v0z" />
<glyph unicode="&#xe90e;" glyph-name="labrary" d="M0-64v42.56h1020.565v-42.56h-1020.565zM892.992 21.035h-127.552c-23.531 0-42.56 19.051-42.56 42.56v850.453c0 23.531 19.051 42.56 42.56 42.56h127.552c23.467 0 42.475-19.029 42.475-42.56v-850.432c0.021-23.531-19.008-42.581-42.475-42.581v0zM892.992 914.048h-127.552v-850.432h127.552v850.432zM635.221 20.736l-127.552 0.704c-23.445 0.128-42.389 19.243-42.261 42.795l4.331 789.419-185.387-803.093c-5.291-22.848-28.117-37.163-51.051-31.893l-124.288 28.779c-22.891 5.269-37.163 28.075-31.851 50.965l191.296 828.672c5.269 22.891 28.16 37.12 51.008 31.829l124.309-28.672c11.328-2.56 20.523-9.472 26.304-18.603v2.987c0.171 23.488 19.243 42.432 42.773 42.304l127.552-0.683c23.509-0.128 42.432-19.243 42.261-42.773l-4.672-850.411c-0.107-23.573-19.221-42.453-42.773-42.325v0zM309.888 917.504l-191.275-828.715 124.267-28.693 191.275 828.672-124.267 28.736zM512.64 914.389l-4.693-850.475 127.531-0.683 4.736 850.432-127.573 0.725z" />
<glyph unicode="&#xe90f;" glyph-name="hat" d="M1024 46.976c0-31.659-25.579-57.344-57.323-57.344-31.637 0-57.323 25.685-57.323 57.344 0 31.637 25.664 57.344 57.323 57.344 31.744 0 57.323-25.685 57.323-57.344v0zM966.677 66.069c-10.581 0-19.115-8.555-19.115-19.093 0-10.581 8.533-19.136 19.115-19.136 10.56 0 19.115 8.555 19.115 19.136 0.021 10.517-8.533 19.093-19.115 19.093v0zM947.563 617.984l-138.411-77.525 33.429-176.171-2.581-17.621-7.061-17.237c-44.096-111.232-199.317-206.016-344.021-206.016-147.115 0-296.832 103.68-344.021 220.693v27.776h1.237l32.576 169.771-167.573 97.749c-14.848 14.933-14.848 23.296 0 38.229l450.795 217.579c14.848 14.891 39.104 14.891 54.037 0l469.845-217.579c14.933-14.933 14.933-23.275 0-38.229v-535.083h-38.229v513.664h-0.021zM488.896 161.6c134.848 0 277.611 91.029 313.557 197.781l-30.421 160.32-264-147.819c-19.136-12.565-16.725-13.184-38.187 0l-254.208 148.245-32.021-166.677c44.864-102.123 176.747-191.851 305.28-191.851v0zM905.792 677.632l-416.896 191.104-439.509-210.24 439.509-248.448 423.424 229.355h-423.424v38.229h416.896z" />
<glyph unicode="&#xe910;" glyph-name="tree" d="M984.576 54.144h-196.907c-21.76 0-39.381 17.621-39.381 39.424v118.144c0 21.76 17.621 39.339 39.381 39.339h196.907c21.781 0 39.424-17.579 39.424-39.339v-118.144c0-21.803-17.621-39.424-39.424-39.424v0zM984.576 211.712h-196.907v-118.144h196.907v118.144zM866.432 408.619h-334.763v-118.144h-39.339v118.144h-334.805v-118.144h-39.339v118.144c0 21.76 17.621 39.339 39.339 39.339h334.805v118.187h39.339v-118.187h334.763c21.76 0 39.381-17.579 39.381-39.339v-118.144h-39.381v118.144zM708.907 605.525h-393.813c-21.76 0-39.424 17.664-39.424 39.424v157.483c0 21.781 17.664 39.424 39.424 39.424h393.813c21.781 0 39.381-17.621 39.381-39.424v-157.483c0-21.76-17.579-39.424-39.381-39.424v0zM708.907 802.432h-393.813v-157.483h393.813v157.483zM275.669 211.712v-118.144c0-21.781-17.621-39.424-39.339-39.424h-196.907c-21.76 0-39.424 17.621-39.424 39.424v118.144c0 21.76 17.664 39.339 39.424 39.339h196.907c21.717 0 39.339-17.6 39.339-39.339v0zM39.424 211.712v-118.144h196.907v118.144h-196.907zM413.525 251.051h196.907c21.76 0 39.424-17.579 39.424-39.339v-118.144c0-21.781-17.664-39.424-39.424-39.424h-196.907c-21.717 0-39.339 17.621-39.339 39.424v118.144c0 21.739 17.621 39.339 39.339 39.339v0zM413.525 93.568h196.907v118.144h-196.907v-118.144z" />
<glyph unicode="&#xe911;" glyph-name="clock" d="M938.667 362.667c0-235.627-191.040-426.667-426.667-426.667s-426.667 191.040-426.667 426.667c0 228.459 179.669 414.379 405.333 425.579v129.088h-74.667c-5.888 0-10.667 4.779-10.667 10.667v21.333c0 5.888 4.779 10.667 10.667 10.667h192c5.888 0 10.667-4.779 10.667-10.667v-21.333c0-5.888-4.779-10.667-10.667-10.667h-74.667v-129.088c225.664-11.2 405.333-197.12 405.333-425.579v0zM512 746.667c-212.075 0-384-171.925-384-384s171.925-384 384-384 384 171.925 384 384-171.925 384-384 384v0zM650.667 277.333h-170.667c-5.888 0-10.667 4.779-10.667 10.667v256c0 5.888 4.779 10.667 10.667 10.667h21.333c5.888 0 10.667-4.779 10.667-10.667v-224h138.667c5.888 0 10.667-4.779 10.667-10.667v-21.333c0-5.888-4.779-10.667-10.667-10.667v0z" />
<glyph unicode="&#xe912;" glyph-name="look" d="M0 437.269c555.115 671.915 1024 0 1024 0-558.656-671.595-1023.787 0-1024 0v0zM42.667 437.269c0.725-0.107 420.139-576.341 938.667 0 0 0-436.224 577.515-938.667 0v0zM512 266.602c-94.272 0-170.667 76.395-170.667 170.667 0 94.293 76.395 170.667 170.667 170.667 94.293 0 170.667-76.373 170.667-170.667 0-94.272-76.373-170.667-170.667-170.667v0zM512 565.269c-70.677 0-128-57.301-128-128s57.323-128 128-128 128 57.301 128 128-57.323 128-128 128v0z" />
<glyph unicode="&#xe913;" glyph-name="thumbs" d="M968.405 345.194l21.205-123.627-52.117-30.912 21.483-61.888-14.955-37.504-15.872-55.296c0 0-32.576-92.736-133.803-93.973-101.163-1.408-705.6 0-705.6 0s-85.696 35.499-85.696 84.459c0 48.768 0 452.053 0 452.053s38.507 82.795 83.115 83.2c44.693 0.341 194.453 0 194.453 0s108.437 27.819 123.285 123.627c14.869 95.893-1.835 281.749 155.115 280 157.12-1.664 178.005-199.381 128.405-383.659 33.067 0 213.824 0 213.824 0s128.32 18.368 119.296-143.765c0.64-6.187-52.139-92.715-52.139-92.715v0zM45.952 448.426c0-5.845 0-416.576 0-409.963-1.579-42.603 53.227-53.717 53.227-53.717s12.352 0 32.235 0v532.843h-21.397c0 0-48.277-0.171-64.064-69.163v0zM944 538.88c0 0-179.605 1.259-235.221 0-51.285-1.259-79.851 8.448-64.064 64.064 57.045 189.952 10.432 319.765-85.717 319.765-104.832 0.341-105.259-224.363-106.837-255.851-38.997-137.088-171.157-149.269-171.157-149.269h-106.816v-532.843c158.549 0 522.731 0.341 605.931 0 106.923-0.171 95.808 64.64 95.808 64.64l31.829 64.661-21.397 64.725 53.291 64.64-21.291 97.067c0 0 38.165 44.437 53.205 96.96 28.395 53.589-27.563 101.44-27.563 101.44v0z" />
<glyph unicode="&#xe914;" glyph-name="thumbs-fil" d="M3.115 478.549c0 0 38.251 82.688 83.029 83.029 44.608 0.491 194.283 0 194.283 0s108.501 27.904 123.371 123.797c14.933 95.68-1.835 281.621 155.264 279.957 156.971-1.664 177.792-199.445 128.256-383.893 33.088 0 213.824 0 213.824 0s128.384 18.539 119.275-143.509c0.576-6.336-52.203-92.8-52.203-92.8l21.483-123.627-52.288-30.976 21.461-61.739-15.019-37.675-15.872-55.125c0 0-32.576-92.8-133.653-94.123-101.227-1.28-705.749 0-705.749 0s-85.44 35.648-85.44 84.437c-0.021 48.875-0.021 452.245-0.021 452.245v0z" />
<glyph unicode="&#xe915;" glyph-name="file" d="M884.608-58.667h-746.091c-74.432 0-74.432 23.531-74.432 64v896c0 40.469 1.045 64 74.432 64h746.091c75.477 0 75.307-28.992 75.307-69.504v-884.992c0-68.693-34.752-69.504-75.307-69.504v0zM917.419 922.666h-810.667v-938.667h810.667v938.667zM196.779 730.666h630.635c14.4 0 26.027-9.536 26.027-21.333s-11.627-21.333-26.027-21.333h-630.635c-14.379 0-26.027 9.536-26.027 21.333s11.627 21.333 26.027 21.333v0zM196.779 474.666h630.635c14.4 0 26.027-9.536 26.027-21.333s-11.627-21.333-26.027-21.333h-630.635c-14.379 0-26.027 9.536-26.027 21.333s11.627 21.333 26.027 21.333v0zM196.779 218.666h630.635c14.4 0 26.027-9.536 26.027-21.333s-11.627-21.333-26.027-21.333h-630.635c-14.379 0-26.027 9.536-26.027 21.333s11.627 21.333 26.027 21.333v0z" />
<glyph unicode="&#xe916;" glyph-name="home" d="M830.528 383.466l22.763-357.077c0-42.24-16.213-56.576-56.875-56.576h-568.875c-43.989-0.021-56.875 17.557-56.875 56.555l22.763 357.077h-193.429l511.979 553.429 512.021-553.408h-193.472zM106.667 424.832c4.011 0 54.443 0 128 0v-41.365h-0.064l-21.269-372.352h597.248l-21.291 372.331h21.291v41.365c64.597 0 106.773 0 106.773 0l-405.376 449.941c0 0-399.872-450.048-405.312-449.92v0zM693.355 93.909h-362.709c-5.931 0-10.667 4.629-10.667 10.325v20.757c0 5.632 4.736 10.24 10.667 10.24h362.709c5.824 0 10.56-4.629 10.56-10.24v-20.757c0-5.696-4.736-10.325-10.56-10.325v0zM671.979 218.005h-319.936c-5.931 0-10.731 4.672-10.731 10.325v20.8c0 5.632 4.8 10.219 10.731 10.219h319.936c5.867 0 10.667-4.587 10.667-10.219v-20.8c0-5.653-4.8-10.325-10.667-10.325v0zM650.645 342.25h-277.376c-5.824 0-10.56 4.544-10.56 10.219v20.757c0 5.632 4.736 10.325 10.56 10.325h277.376c5.867 0 10.667-4.715 10.667-10.325v-20.757c0-5.675-4.8-10.219-10.667-10.219v0z" />
<glyph unicode="&#xe917;" glyph-name="users" d="M1023.509 119.018c0 0 0-12.907 0-27.456 0-14.571-25.216-27.563-25.216-27.563s-74.837 0-166.784 0v38.464c47.36 0.661 97.536 1.963 149.333 4.203 0 8.96 0 18.411 0 25.365-23.36 24.085-161.216 85.248-170.667 145.301 0 0.64-4.864 38.144 11.968 90.496 18.923 28.117 30.699 65.536 30.699 103.445 0 76.608-47.744 126.059-106.667 126.059s-106.667-49.451-106.667-126.059c0-39.104 12.523-77.568 32.491-106.027 4.757-14.208 10.005-36.288 10.731-62.955l-42.987 31.211c-0.427 2.325-0.747 4.693-1.216 6.869-25.792 35.968-41.707 83.456-41.707 132.267 0 100.117 66.837 167.36 149.333 167.36s149.333-67.221 149.333-167.36c0-48.64-15.829-96-41.451-131.883-20.693-72.405 41.216-105.856 41.451-106.112 148.693-82.56 128.021-115.627 128.021-115.627v0zM618.176 277.333c211.541-109.739 170.667-140.203 170.667-140.203s0-17.216 0-36.501c0-19.243-35.883-36.629-35.883-36.629s-695.253 0-717.568 0c-22.293 0-35.883 36.629-35.883 36.629s0 10.389 0 36.501c0 51.968 145.621 128.725 170.667 140.203 126.144 63.275 93.824 171.392 74.027 215.189-32.555 45.909-52.693 104.896-52.693 165.504 0 129.6 90.752 216.64 202.667 216.64s202.667-87.040 202.667-216.64c0-60.523-20.032-119.36-52.459-165.163-62.848-133.504 73.451-215.104 73.792-215.531v0zM394.176 832c-88.341 0-165.973-72.469-160-184.235 2.667-49.216 16.811-97.771 39.36-136.896-0.32 0-1.216 0-1.216 0s53.163-80 25.856-148.203c-42.176-133.973-239.189-155.307-256-218.923 0-23.253-0.96-36.352 0-37.077 343.040-11.883 704 0 704 0s0 27.008 0 37.077c-57.707 63.040-223.829 119.915-256 218.923-0.085 1.045-25.131 65.131 25.856 148.203 0 0-0.811 0.064-1.216 0.064 22.464 39.040 36.587 87.68 39.339 136.811 6.293 111.787-71.552 184.256-159.979 184.256v0z" />
<glyph unicode="&#xe918;" glyph-name="order" d="M354.752 92.245l-8.085-7.915-3.051 3.371-226.901 265.109 32.341 27.691 200.853-234.688 645.163 597.803 28.928-31.275-669.248-620.096zM127.744 731.136h596.011v-42.517h-596.011v42.517zM281.387 262.912l-30.144 42.517h226.496l-43.136-42.517h-153.216zM127.744 518.293h532.139v-42.539h-532.139v42.539zM723.776 305.429v-42.517h-135.723l43.115 42.517h92.608zM808.896 922.709h-766.272v-936.533h766.272v481.045l42.581 39.851v-520.896c0-23.509-19.072-42.603-42.581-42.603h-766.272c-23.531 0-42.624 19.115-42.624 42.624v936.533c0 23.552 19.093 42.603 42.624 42.603h766.272c23.531 0 42.581-19.051 42.581-42.624v-256.491l-42.581-39.893v296.384z" />
<glyph unicode="&#xe919;" glyph-name="alarm" d="M512.619 149.312c-536.149 8.981-454.699 144.021-447.957 149.355 122.197 76.992 149.781 191.979 149.312 191.979 1.429 324.011 162.432 374.677 216.832 382.549-2.069 7.339-3.52 14.827-3.52 22.805 0 47.104 38.229 85.333 85.333 85.333 47.125 0 85.333-38.229 85.333-85.333 0-7.765-1.387-15.147-3.349-22.293 193.216-19.349 216.683-347.861 216.683-383.061 31.701-88.192 83.584-155.008 128-170.667 49.707-17.472 94.336-170.667-426.667-170.667v0zM512.619 938.666c-23.573 0-42.667-19.093-42.667-42.667s19.093-42.667 42.667-42.667 42.667 19.093 42.667 42.667-19.072 42.667-42.667 42.667v0zM896.619 298.666c0 0-86.059 41.131-128 191.979 0 56.725-33.003 341.333-192.021 341.333-0.256 0-32.277 0-63.979 0 0 0-30.507 0-63.979 0-13.717 0-192.021 5.269-192.021-341.333 0-33.621-73.536-165.973-128-191.979-18.219-10.197-128.683-106.688 384-106.688s384 106.688 384 106.688v0zM512.619 0c58.923 0 106.645 47.723 106.645 106.645h42.667c0-82.432-66.816-149.312-149.312-149.312s-149.312 66.88-149.312 149.312h42.667c0-58.923 47.744-106.645 106.645-106.645v0z" />
<glyph unicode="&#xe91a;" glyph-name="contact" d="M1012.032 192h-104.128c-6.571 0-11.947 4.8-11.947 10.667v21.333c0 5.867 5.333 10.624 11.947 10.624h104.128c6.571 0 11.968-4.757 11.968-10.624v-21.333c-0.021-5.867-5.397-10.667-11.968-10.667v0zM1012.544 405.333h-169.173c-6.336 0-11.349 4.8-11.349 10.667v21.333c0 5.845 5.013 10.667 11.349 10.667h169.173c6.315 0 11.435-4.821 11.435-10.667v-21.333c0-5.867-5.12-10.667-11.435-10.667v0zM770.368 618.666c-1.323 0-2.389 1.088-2.389 2.411v37.824c0 1.344 1.067 2.411 2.389 2.411h251.136c1.387 0 2.453-1.109 2.453-2.411v-37.803c0-1.344-1.067-2.453-2.389-2.453l-251.2 0.021zM659.584 259.882c239.936-120.512 257.771-195.883 257.771-195.883s0-19.733 0-42.667c0-22.72-51.648-42.667-51.648-42.667s-798.827 0-824.491 0c-25.643 0-41.216 43.264-41.216 43.264s0 12.395 0 43.307c0 61.397 184.171 156.821 213.333 169.451 277.333 120.149 17.067 261.696 21.312 426.645 3.925 153.131 100.309 256 224.021 256 123.733-0.021 223.979-102.827 223.979-256 0-79.723-33.579-147.179-78.912-224 0 0-86.379-106.048 55.851-177.451zM640 661.333c0 129.6-81.216 213.333-181.333 213.333-100.203 0-181.376-83.733-181.376-213.333 0-78.784 44.821-147.904 76.117-204.949 18.944-34.581 48.939-100.309 9.216-157.696-58.155-79.36-257.323-133.952-319.957-234.304 0-26.965 0-43.051 0-43.051h832c0 0 0 31.339 0 43.051-125.931 133.355-260.608 142.827-320 234.283-0.043 1.216-54.4 70.933 35.349 191.147 0.149 0.171 7.701-0.171 0 0 30.891 47.189 49.984 108.949 49.984 171.52v0z" />
<glyph unicode="&#xe91b;" glyph-name="cube" d="M1024 133.312l-512-170.624-512 170.624 5.163 1.707c-3.029 1.899-5.163 5.163-5.163 9.003v618.624c0 3.84 2.133 7.083 5.163 8.96l-5.163 1.707 512 170.667 512-170.667-5.163-1.707c3.029-1.877 5.163-5.12 5.163-8.96v-618.624c0-3.84-2.133-7.104-5.163-9.003l5.163-1.707zM512 5.312l405.355 128-405.355 128-405.312-128 405.312-128zM42.667 147.52l448.021 149.376v312.832l-448.021 149.355v-611.563zM512 901.312l-405.312-128 405.312-128 405.355 128-405.355 128zM981.333 759.082l-448.021-149.355v-312.832l448.021-149.376v611.563z" />
<glyph unicode="&#xe91c;" glyph-name="face" d="M512-28c-265.12 0-480 214.88-480 480s214.88 480 480 480 480-214.88 480-480-214.88-480-480-480v0zM512 891.999c-243 0-440-197-440-440s197-440 440-440 440 197 440 440-197 440-440 440v0zM692.020 511.98c-22.1 0-40 22.4-40 50.040 0 27.58 17.9 49.98 40 49.98 22.080 0 40-22.4 40-49.98 0-27.64-17.94-50.040-40-50.040v0zM692.020 351.98c45.48-38.98 0.060-59.78 0-59.98-191.76-174.46-347.54-9.42-360.040 0-48.24 45.96 0 59.98 0 59.98 180.7-212.76 344.66-24.68 360.040 0v0zM332.020 511.98c-22.1 0-40 22.4-40 50.040 0 27.58 17.9 49.98 40 49.98 22.080 0 40-22.4 40-49.98 0-27.64-17.94-50.040-40-50.040v0z" />
<glyph unicode="&#xe91d;" glyph-name="talk" d="M904.688 148.333h-544.236l-344.452-206.666v888.646c0 57.122 46.232 103.354 103.354 103.354h785.334c57.060 0 103.312-46.232 103.312-103.354v-578.666c0-57.060-46.252-103.312-103.312-103.312v0zM966.666 830.312c0 34.266-27.776 62.020-61.98 62.020h-785.334c-34.266 0-62.020-27.756-62.020-62.020v-805.98l300.658 165.334h546.696c34.204 0 61.98 27.776 61.98 61.98v578.666zM760 499.687c-22.836 0-41.334 18.496-41.334 41.334 0 22.816 18.496 41.334 41.334 41.334s41.334-18.518 41.334-41.334c0-22.836-18.496-41.334-41.334-41.334v0zM512 499.687c-22.836 0-41.334 18.496-41.334 41.334 0 22.816 18.496 41.334 41.334 41.334s41.334-18.518 41.334-41.334c0-22.836-18.496-41.334-41.334-41.334v0zM264 499.687c-22.836 0-41.334 18.496-41.334 41.334 0 22.816 18.496 41.334 41.334 41.334s41.334-18.518 41.334-41.334c0-22.836-18.496-41.334-41.334-41.334v0z" />
<glyph unicode="&#xe91e;" glyph-name="pencil" d="M236.352 58.128l-2.865-0.767h463.947c11.308 0 20.466-9.159 20.466-20.466 0-11.297-9.159-20.466-20.466-20.466h-619.213c-0.010 0-0.010 0-0.020 0-0.348 0-0.686 0.010-1.034 0.031-0.143 0-0.276 0.010-0.42 0.031-0.409 0.020-0.829 0.061-1.238 0.123-0.767 0.092-1.525 0.235-2.262 0.43-0.307 0.082-0.624 0.164-0.931 0.256-0.235 0.072-0.481 0.143-0.716 0.225s-0.471 0.174-0.696 0.256c0 0 0 0-0.010 0-0.225 0.092-0.46 0.184-0.686 0.287-0.235 0.092-0.46 0.194-0.686 0.307-0.297 0.143-0.594 0.287-0.89 0.45-0.297 0.153-0.594 0.317-0.88 0.491-0.583 0.338-1.146 0.716-1.678 1.115-0.225 0.164-0.44 0.327-0.655 0.501-1.167 0.931-2.231 1.995-3.162 3.162-0.174 0.215-0.338 0.43-0.501 0.655-0.614 0.819-1.156 1.688-1.637 2.609-0.143 0.276-0.287 0.563-0.42 0.839-0.102 0.225-0.205 0.45-0.307 0.686-0.194 0.46-0.368 0.921-0.532 1.392-0.153 0.471-0.297 0.941-0.43 1.412-0.184 0.737-0.338 1.474-0.45 2.221-0.092 0.634-0.153 1.289-0.194 1.934 0 0.020-0.010 0.031 0 0.051-0.010 0.153-0.010 0.307-0.010 0.46-0.010 0.082-0.010 0.174-0.010 0.266-0.010 0.307 0 0.624 0.010 0.941 0.010 0.225 0.020 0.44 0.031 0.665 0.041 0.665 0.123 1.33 0.225 1.995 0.031 0.225 0.072 0.44 0.123 0.655 0.041 0.225 0.092 0.44 0.143 0.665 0.051 0.215 0.102 0.44 0.164 0.655l0.153 0.563c0.010 0.082 0.041 0.153 0.061 0.225l40.769 152.033c0.941 3.51 2.794 6.692 5.372 9.251l633.427 626.929c8.033 7.951 20.998 7.89 28.949-0.143 7.951-8.043 7.879-20.998-0.153-28.949l-629.487-623.040-30.372-113.208 113.321 30.402 629.569 623.122c8.033 7.951 20.998 7.879 28.949-0.153s7.879-20.988-0.153-28.939l-633.427-626.939c-2.528-2.497-5.659-4.298-9.087-5.219zM921.621 733.355c-0.1-0.080 16.818 16.839 16.818 16.839 38.798 38.798 38.798 101.686 0.041 140.454-38.837 38.808-101.706 38.777-140.485 0 0 0-16.936-16.938-16.839-16.839l140.464-140.454zM57.775 37.559c-0.010-0.317-0.020-0.634-0.010-0.941-0.010 0.092-0.010 0.184-0.010 0.276 0 0.225 0 0.45 0.020 0.665zM58.031 40.22c-0.102-0.665-0.184-1.33-0.225-1.995 0.031 0.675 0.113 1.341 0.225 1.995zM57.98 33.906c-0.102 0.634-0.164 1.279-0.194 1.934 0.041-0.645 0.102-1.3 0.194-1.934zM58.614 42.758c-0.123-0.399-0.235-0.808-0.317-1.218 0.051 0.215 0.102 0.44 0.164 0.655l0.153 0.563z" />
<glyph unicode="&#xe91f;" glyph-name="delete" d="M854.357 695.381l-34.659-663.553-0.031-0.379c-2.548-28.499-26.759-50.838-55.115-50.838h-474.845c-28.356 0-52.577 22.339-55.126 50.838l-0.051 0.757-34.618 663.174c-0.583 11.297 8.084 20.916 19.371 21.51 11.297 0.594 20.916-8.084 21.51-19.371l34.588-662.703c0.798-7.102 7.419-13.272 14.326-13.272h474.845c6.897 0 13.518 6.171 14.316 13.262l34.608 662.714c0.594 11.287 10.213 19.954 21.51 19.371 11.287-0.594 19.954-10.223 19.371-21.51zM936.191 839.616c0-11.308-9.159-20.466-20.466-20.466h-265.875c-11.308 0-20.466 9.159-20.466 20.466v61.357c0 11.267-9.169 20.435-20.435 20.435h-163.616c-11.277 0-20.446-9.169-20.446-20.435v-61.357c0-11.308-9.159-20.466-20.466-20.466h-265.875c-11.297 0-20.466 9.159-20.466 20.466s9.169 20.466 20.466 20.466h245.409v40.891c0 33.841 27.537 61.368 61.378 61.368h163.616c33.831 0 61.368-27.527 61.368-61.368v-40.891h245.409c11.308 0 20.466-9.159 20.466-20.466zM639.637 676v-572.663c0-11.297-9.169-20.466-20.466-20.466-11.308 0-20.466 9.169-20.466 20.466v572.663c0 11.308 9.159 20.466 20.466 20.466 11.297 0 20.466-9.159 20.466-20.466zM455.565 676v-572.663c0-11.297-9.159-20.466-20.466-20.466-11.297 0-20.466 9.169-20.466 20.466v572.663c0 11.308 9.169 20.466 20.466 20.466 11.308 0 20.466-9.159 20.466-20.466z" />
<glyph unicode="&#xe920;" glyph-name="add" d="M875.263 453.808c0-11.308-9.159-20.466-20.466-20.466h-307.197v-307.207c0-11.297-9.159-20.466-20.466-20.466s-20.466 9.169-20.466 20.466v307.207h-307.197c-11.308 0-20.466 9.159-20.466 20.466 0 11.297 9.159 20.466 20.466 20.466h307.197v307.197c0 11.308 9.159 20.466 20.466 20.466s20.466-9.159 20.466-20.466v-307.197h307.197c11.308 0 20.466-9.169 20.466-20.466z" />
<glyph unicode="&#xe921;" glyph-name="cog" d="M401.427 349.13c27.937-27.834 66.696-44.864 109.452-44.864v0-0.559c42.757 0 81.516 17.589 110.013 45.423 27.939 27.814 45.039 66.991 45.039 109.566v0c0 42.596-17.099 81.195-45.039 109.010-28.497 27.814-67.256 45.42-110.013 45.42s-81.515-17.607-109.452-45.42c-28.499-27.816-45.599-66.414-45.599-109.010 0-42.577 17.099-81.753 45.599-109.566v0zM364.95 604.055c37.048 37.444 88.922 60.741 145.929 60.741 56.995 0 108.875-23.298 146.489-60.741 37.060-36.907 60.436-88.576 60.436-145.359 0-56.763-23.376-108.432-60.436-145.916-37.616-36.887-89.494-60.165-146.489-60.165-57.006 0-108.881 23.278-145.929 60.165-37.629 37.485-60.995 89.154-60.995 145.916 0 56.782 23.366 108.451 60.995 145.359v0zM870.014 404.2v0l37.617 9.074v90.286l-37.617 9.073c-7.999 2.269-15.399 6.248-21.099 11.917-5.7 5.691-9.7 13.072-11.977 21.011-3.982 14.205-8.539 27.814-14.239 41.442s-11.98 26.7-19.38 39.752c-4.577 6.805-6.278 14.743-6.278 22.702v0.575c0 7.939 2.279 15.898 6.278 22.702l19.939 32.927-63.837 64.164-33.636-19.876c-3.421-2.267-7.421-3.958-10.839-5.112-4.559-1.134-8.543-1.692-12.541-1.692-3.98 0-7.978 0.557-11.958 1.692-3.42 1.154-7.421 2.269-10.842 4.536v0c-13.099 7.382-26.216 13.648-39.898 19.319-13.116 5.67-27.355 10.207-41.615 14.186v0c-7.981 2.286-14.82 6.247-20.519 11.937-5.7 5.67-9.7 13.051-11.978 20.991v0l-9.121 37.484h-90.632l-9.69-37.484c-1.71-7.939-6.269-15.321-11.399-20.991-5.7-5.69-13.11-9.65-21.090-11.937-14.256-3.98-27.937-8.516-41.615-14.186v0c-13.681-5.671-26.797-11.937-39.337-19.319-3.992-2.268-7.41-3.382-11.399-4.536-3.992-1.134-7.982-1.692-11.971-1.692-3.99 0-7.979 0.557-11.97 1.692-3.99 1.154-7.98 2.846-11.401 5.112l-33.066 19.876-64.414-64.164 19.948-32.927c4.568-6.804 6.279-14.763 6.849-22.702v-0.575c0-7.959-2.281-15.897-6.27-22.702-7.418-13.052-14.26-26.123-19.958-39.752-5.7-13.627-10.259-27.237-14.25-41.442-1.709-7.939-6.269-15.32-11.969-21.011-5.7-5.67-13.109-9.649-21.099-11.917v0l-37.048-9.073v-90.286l37.048-9.074c7.99-2.267 15.399-6.246 21.099-11.935 5.7-5.67 10.259-12.475 11.969-20.434 3.991-14.185 8.55-28.391 14.25-41.443 5.699-13.627 12.54-27.257 19.958-39.752 3.989-7.362 6.27-15.32 6.27-23.277v0c-0.57-7.939-2.281-15.897-6.849-23.259l-19.948-32.947 63.845-63.587 33.636 19.876c3.421 2.269 7.411 3.402 11.401 4.537 3.991 1.153 7.98 1.711 11.97 1.711 3.989 0 7.978-0.558 11.971-1.133 3.989-1.134 7.979-2.846 11.399-5.114v0c12.54-6.804 25.656-13.627 39.337-19.299 13.679-5.67 27.36-10.226 41.615-14.185v0c7.981-1.712 15.392-6.246 21.090-11.937 5.13-5.671 9.689-13.052 11.399-21.011l9.69-37.463h90.632l9.121 37.463c2.278 7.958 6.278 15.339 11.978 21.011 5.699 5.692 12.539 10.225 20.519 11.937v0c14.26 3.959 28.499 8.515 41.615 14.185 13.682 5.671 26.798 12.495 39.898 19.299 3.421 2.269 7.422 3.981 10.842 5.114 3.981 0.576 7.979 1.133 11.958 1.133 3.998 0 7.982-0.558 11.98-1.711h0.561c3.418-1.134 7.418-2.269 10.839-4.537l33.636-19.876 63.837 63.587-19.939 32.947c-3.999 7.361-6.278 15.32-6.278 23.259 0 7.957 1.701 15.915 6.278 23.277 7.401 12.496 13.681 26.124 19.38 39.176 5.7 13.627 10.258 27.833 14.239 42.019 2.278 7.958 6.277 14.764 11.977 20.434 6.26 5.689 13.098 9.668 21.098 11.935v0zM885.976 562.035l39.316-9.649c8.557-2.269 17.678-6.824 24.518-13.072 5.697-5.671 9.119-13.052 9.119-22.145v-117.523c0-9.65-4.56-17.59-11.4-23.28-5.699-5.094-14.238-9.073-21.659-11.341h-0.578l-39.316-9.65c-4.001-15.338-9.7-30.658-15.4-44.863-6.261-14.763-13.121-28.949-21.099-42.578l21.099-35.196c4.56-7.383 7.979-17.032 7.979-26.124 0-7.938-2.84-15.894-9.119-22.142v0l-83.236-82.886c-3.419-3.402-6.84-5.671-10.257-6.804-3.422-1.153-7.4-2.289-11.401-2.289v0c-4.559 0-9.12 1.136-13.68 2.845-4.56 1.133-9.119 2.846-13.1 5.116v0l-35.357 21.006c-13.679-7.379-27.917-14.762-42.755-20.452-14.242-6.226-29.64-11.341-44.458-15.32l-10.261-39.751v-0.559c-2.278-7.379-6.259-15.895-11.399-21.564-5.7-6.825-13.678-11.363-23.38-11.363v0h-117.991c-9.119 0-16.528 3.404-22.227 9.075-6.271 6.823-10.839 15.893-13.121 24.41v0l-9.689 39.753c-15.388 3.979-30.209 9.094-44.458 15.32-14.827 5.691-29.076 12.495-42.755 20.452l-35.347-21.006h-0.572c-3.989-2.27-7.978-3.983-12.538-5.116v0c-4.561-1.709-9.121-2.845-14.25-2.845v0c-3.989 0-7.979 1.136-11.4 2.289v0c-3.42 1.688-6.84 3.401-9.689 6.804v0l-83.794 82.886c-6.28 6.247-8.56 14.205-8.56 22.142 0 9.093 3.419 18.741 7.98 26.124v0l20.529 35.196c-7.41 13.628-14.818 27.816-20.529 42.578-6.27 14.205-11.4 29.524-15.959 44.863l-39.327 9.65c-7.98 2.269-15.97 6.247-22.24 11.341-6.84 5.691-11.399 13.63-11.399 23.28v117.523c0 9.093 3.991 16.474 9.69 22.145v0c6.27 6.247 15.399 10.803 23.948 13.072l39.327 9.649c4.561 15.32 9.69 30.081 15.959 44.844 5.709 14.763 13.118 28.969 20.529 42.578l-20.529 34.637-0.56 0.576c-3.429 6.806-6.85 15.321-7.42 23.26-0.569 9.092 1.71 17.608 8.56 24.412v0l83.794 83.463c2.849 2.845 6.269 5.113 9.689 6.246 3.991 1.711 7.98 2.288 11.97 2.288 4.56 0 9.119-0.577 13.68-1.729 4.561-1.692 9.118-3.96 13.11-6.229l34.776-21.010c14.25 7.939 28.499 14.763 42.758 21.010 14.817 5.671 29.637 10.786 45.025 15.339l9.689 39.174v0.558c2.282 8.516 6.849 17.589 13.121 23.855 5.699 5.651 13.11 9.65 22.227 9.65v0h117.991c9.702 0 17.68-4.556 23.38-11.38 5.139-6.227 9.121-14.186 11.399-22.125v0l10.261-39.732c14.817-4.555 30.215-9.669 44.458-15.339v0c14.838-6.246 29.076-13.071 42.755-21.010l35.357 21.010c3.982 2.269 8.541 4.537 13.1 6.229 3.997 1.152 8.558 1.729 13.118 1.729 3.982 0 7.98-0.577 11.961-2.288 3.999-1.133 7.417-3.401 10.257-6.246v0l83.236-83.463c7.417-6.804 9.119-15.32 8.559-24.412-0.58-7.939-3.421-16.454-7.419-23.26v-0.576l-21.099-34.637c7.978-13.61 14.838-27.816 21.099-42.578 5.701-14.763 11.4-29.525 15.401-44.845v0z" />
<glyph unicode="&#xe922;" glyph-name="heart-o" d="M510.813 57.365c-3.95 0-7.855 1.010-11.435 2.939-4.41 2.482-109.395 61.233-215.984 157.464-63.066 56.912-113.412 115.112-149.723 173.081-46.278 73.908-69.705 147.655-69.705 219.198 0 136.172 110.771 246.942 246.941 246.942 46.097 0 95.064-17.271 137.873-48.645 25.010-18.327 46.324-40.444 62.033-63.918 15.713 23.474 37.025 45.59 62.014 63.918 42.808 31.374 91.775 48.645 137.892 48.645 136.152 0 246.943-110.77 246.943-246.942 0-71.543-23.472-145.29-69.727-219.198-36.241-57.968-86.631-116.168-149.654-173.081-106.568-96.232-211.575-154.983-215.983-157.464-3.582-1.929-7.484-2.939-11.436-2.939h-0.048zM310.908 809.953c-110.195 0-199.905-89.709-199.905-199.906 0-142.993 110.542-272.896 203.236-356.773 82.798-74.872 166.719-127.375 196.575-145.198 29.858 17.823 113.78 70.326 196.601 145.198 92.693 83.832 203.212 213.78 203.212 356.773 0 110.197-89.711 199.906-199.907 199.906-80.106 0-157.897-65.893-177.602-125.034-3.219-9.576-12.196-16.076-22.304-16.076-10.104 0-19.084 6.5-22.301 16.076-19.705 59.141-97.493 125.034-177.605 125.034z" />
<glyph unicode="&#xe923;" glyph-name="heart-fill" d="M510.813 57.365c-3.95 0-7.855 1.010-11.435 2.939-4.41 2.482-109.395 61.233-215.984 157.464-63.066 56.912-113.412 115.112-149.723 173.081-46.278 73.908-69.705 147.655-69.705 219.198 0 136.172 110.771 246.942 246.941 246.942 46.097 0 95.064-17.271 137.873-48.645 25.010-18.327 46.324-40.444 62.033-63.918 15.713 23.474 37.025 45.59 62.014 63.918 42.808 31.374 91.775 48.645 137.892 48.645 136.152 0 246.943-110.77 246.943-246.942 0-71.543-23.472-145.29-69.727-219.198-36.241-57.968-86.631-116.168-149.654-173.081-106.568-96.232-211.575-154.983-215.983-157.464-3.582-1.929-7.484-2.939-11.436-2.939h-0.048z" />
<glyph unicode="&#xe924;" glyph-name="marker" d="M431.615 497.798c20.456-21.044 49.465-33.564 81.286-33.564v0c31.243 0 60.233 12.519 80.69 33.564 21.035 20.486 33.535 49.503 33.535 80.796v0 0c0 31.859-12.501 60.867-33.535 81.354-20.456 21.052-49.446 33.563-80.69 33.563v0c-31.822 0-60.829-12.512-81.286-33.563v0c-21.015-20.487-33.517-49.496-33.517-81.354 0-31.293 12.503-60.311 33.517-80.796v0zM395.247 696.353c30.126 30.155 71.616 48.936 117.654 48.936v0c45.459 0 86.949-18.781 117.076-48.936 30.108-30.146 48.867-71.685 48.867-117.759 0-45.517-18.759-87.047-48.867-117.201-30.127-30.165-71.617-48.927-117.076-48.927v0c-46.036 0-87.526 18.762-117.654 48.927-30.126 30.155-48.868 71.685-48.868 117.201 0 46.074 18.742 87.613 48.868 117.759v0zM237.835 578.594c0-221.892 241.529-461.398 275.065-493.836 33.515 32.439 274.487 271.945 274.487 493.836v0c0 76.229-30.685 145.073-80.132 195.135-50.006 49.503-118.77 80.217-194.356 80.217v0c-76.163 0-144.929-30.714-194.934-80.217-49.444-50.063-80.13-118.906-80.13-195.135v0zM281.6 810.144c59.097 59.163 140.923 95.579 231.301 95.579v0c89.781 0 171.625-36.414 230.722-95.579 59.117-59.174 95.485-141.096 95.485-231.551 0-261.149-317.693-560.964-322.238-566.089h-0.559l-3.987-3.409-3.409 3.409c-1.136 1.138-322.797 303.246-322.797 566.089-0.002 90.455 36.365 172.377 95.482 231.551v0z" />
<glyph unicode="&#xe925;" glyph-name="power" d="M511.1 378.457c-14.558 0-26.328 11.827-26.328 26.328v473.87c0 14.528 11.77 26.327 26.328 26.327 14.545 0 26.327-11.798 26.327-26.327v-473.871c0-14.5-11.781-26.327-26.327-26.327zM511.1 9.887c-105.465 0-204.704 41.083-279.261 115.693-74.557 74.602-115.636 173.738-115.636 279.203 0 86.766 27.607 169.111 79.848 238.143 50.595 66.766 122.377 116.618 202.179 140.375 13.986 4.164 28.588-3.783 32.806-17.74 4.113-13.964-3.806-28.589-17.791-32.754-143.87-42.861-244.445-177.755-244.445-328.080 0-188.707 153.537-342.239 342.244-342.239s342.243 153.532 342.243 342.239c0 150.326-100.517 285.219-244.489 328.080-13.941 4.165-21.803 18.79-17.689 32.754 4.114 13.957 18.762 21.853 32.702 17.74 79.905-23.756 151.686-73.609 202.179-140.375 52.343-69.032 79.905-151.377 79.905-238.143 0-105.465-41.089-204.646-115.692-279.204-74.615-74.557-173.751-115.693-279.206-115.693h0.105z" />
<glyph unicode="&#xe926;" glyph-name="focus" d="M896.951 71.349c6.258 6.275 10.255 14.831 10.255 24.527v241.259c0 9.713-3.996 18.27-10.255 24.545-6.276 6.258-14.811 10.255-24.506 10.255v0h-241.009c-9.694 0-18.229-3.996-24.505-10.255v0c-6.258-6.276-10.255-14.832-10.255-24.545v0-241.26c0-9.696 3.997-18.252 10.255-24.527 6.276-6.277 14.812-10.275 24.505-10.275h241.010c9.695 0.001 18.23 3.999 24.505 10.276v0zM631.436 423.265h241.010c23.927 0 45.576-9.696 60.967-25.086 15.392-15.412 25.066-37.078 25.066-61.044v0-241.26c0-23.966-9.674-45.634-25.066-61.045-15.391-15.39-37.040-25.085-60.967-25.085v0h-241.010c-23.927 0-45.594 9.696-60.967 25.085-15.392 15.412-25.067 37.080-25.067 61.045v241.26c0 23.966 9.675 45.633 25.067 61.044v0c15.372 15.391 37.040 25.086 60.967 25.086v0zM896.951 554.468c6.258 6.258 10.255 14.831 10.255 23.946v241.858c0 9.115-3.996 18.23-10.255 24.526-6.276 6.258-14.811 9.695-24.506 9.695h-241.009c-9.694 0-18.229-3.437-24.505-9.695-6.258-6.295-10.255-15.411-10.255-24.526v0-241.858c0-9.116 3.997-17.689 10.255-23.946 6.276-6.277 14.812-10.274 24.505-10.274v0h241.010c9.695 0 18.23 3.997 24.505 10.274v0zM631.436 906.403h241.010c23.927 0 45.576-9.695 60.967-25.106v0c15.392-15.97 25.066-37.657 25.066-61.025v0-241.858c0-23.387-9.674-45.054-25.066-60.445v0c-15.391-15.99-37.040-25.685-60.967-25.685h-241.010c-23.927 0-45.594 9.695-60.967 25.685-15.392 15.392-25.067 37.059-25.067 60.445v241.858c0 23.947 9.675 45.054 25.067 61.025v0c15.372 15.412 37.040 25.106 60.967 25.106v0zM414.344 554.468c6.267 6.258 10.264 14.831 10.264 23.946v241.858c0 9.115-3.997 18.23-10.264 24.526v0c-6.268 6.258-14.812 9.695-23.927 9.695h-241.589c-9.116 0-18.23-3.437-24.497-9.695-6.267-6.295-9.685-15.411-9.685-24.526v0-241.858c0-9.116 3.419-17.689 9.685-23.946 6.267-6.277 15.382-10.274 24.497-10.274v0h241.588c9.116 0 17.66 3.997 23.928 10.274v0zM148.828 906.403h241.588c23.357 0 45.015-9.695 60.398-25.106 15.95-15.97 25.636-37.076 25.636-61.025v0-241.858c0-23.387-9.686-45.054-25.636-60.445-15.382-15.99-37.042-25.685-60.398-25.685h-241.588c-23.927 0-45.006 9.695-60.957 25.685-15.392 15.392-25.076 37.059-25.076 60.445v241.858c0 23.947 9.685 45.054 25.076 61.025v0c15.951 15.412 37.6 25.106 60.957 25.106v0zM414.344 71.349c6.267 6.275 10.264 14.831 10.264 24.527v241.259c0 9.713-3.997 18.27-10.264 24.545v0c-6.268 6.258-14.812 10.255-23.927 10.255v0h-241.589c-9.686 0-18.23-3.996-24.497-10.255v0c-6.267-6.276-9.685-14.832-9.685-24.545v0-241.26c0-9.696 3.419-18.252 9.685-24.527 6.267-6.277 15.382-10.275 24.497-10.275h241.588c9.116 0.001 17.66 3.999 23.928 10.276v0zM148.828 423.265h241.588c23.357 0 45.015-9.696 60.398-25.086v0c15.95-15.412 25.636-37.078 25.636-61.044v0-241.26c0-23.966-9.686-45.634-25.636-61.045v0c-15.382-15.39-37.042-25.085-60.398-25.085v0h-241.588c-23.927 0-45.006 9.696-60.957 25.085-15.392 15.412-25.076 37.080-25.076 61.045v241.26c0 23.966 9.685 45.633 25.076 61.044 15.951 15.391 37.030 25.086 60.957 25.086v0z" />
<glyph unicode="&#xe927;" glyph-name="ok" d="M874.322 726.428l-389.174-506.199c-3.53-4.595-8.862-7.48-14.644-7.931-0.532-0.041-1.054-0.061-1.586-0.061-5.229 0-10.284 2.006-14.101 5.649l-210.013 199.882-32.398-42.15c-6.897-8.954-19.74-10.642-28.704-3.745-8.964 6.887-10.642 19.74-3.745 28.694l46.264 60.181c3.541 4.595 8.862 7.48 14.644 7.931s11.492-1.586 15.687-5.587l210.013-199.882 375.298 488.168c6.897 8.964 19.74 10.642 28.704 3.756 8.964-6.897 10.642-19.74 3.756-28.704z" />
<glyph unicode="&#xe928;" glyph-name="close" d="M176.662 164.16c-8.189-8.471-7.96-21.977 0.511-30.166s21.977-7.96 30.166 0.511l618.667 640c8.189 8.471 7.96 21.977-0.511 30.166s-21.977 7.96-30.166-0.511l-618.667-640zM795.328 134.506c8.189-8.471 21.694-8.7 30.166-0.511s8.7 21.694 0.511 30.166l-618.667 640c-8.189 8.471-21.694 8.7-30.166 0.511s-8.7-21.694-0.511-30.166l618.667-640z" />
<glyph unicode="&#xe929;" glyph-name="mike" d="M530.283 88.085v-110.187h82.261c5.035 0 9.152-4.096 9.152-9.152v-18.283c0-5.013-4.096-9.131-9.152-9.131h-201.131c-5.035 0-9.152 4.096-9.152 9.131v18.283c0 5.035 4.096 9.152 9.152 9.152h82.283v110.187c-162.325 4.843-292.544 137.685-292.544 301.248v64h36.565v-64c0-146.432 118.72-265.152 265.152-265.152h18.283c146.411 0 265.152 118.699 265.152 265.152v64h36.565v-64c-0.021-163.563-130.24-296.405-292.587-301.248v0zM521.152 179.050h-18.283c-116.139 0-210.261 94.123-210.261 210.283v365.717c-0.021 116.139 94.101 210.283 210.24 210.283h18.283c116.139 0 210.283-94.144 210.283-210.283v-365.717c0.021-116.16-94.123-210.283-210.261-210.283v0zM694.848 755.050c0 95.936-77.781 173.717-173.717 173.717h-18.283c-95.915 0-173.717-77.781-173.717-173.717v-365.717c0-95.936 77.781-173.717 173.717-173.717h18.283c95.915 0 173.717 77.781 173.717 173.717v365.717z" />
<glyph unicode="&#xe92a;" glyph-name="play-sign" d="M512-42c-265.080 0-480 214.92-480 480s214.92 480 480 480 480-214.92 480-480-214.92-480-480-480v0zM512 877.999c-243 0-440-197-440-440s197-440 440-440c243 0 440 197 440 440s-197 440-440 440v0zM412 598l280-160-280-160v320z" />
<glyph unicode="&#xe92b;" glyph-name="up" d="M820.094 321.497c-5.176 0-10.354 1.95-14.339 5.863l-278.621 273.604-278.621-273.603c-8.065-7.919-21.022-7.803-28.942 0.264-7.919 8.065-7.802 21.022 0.263 28.942l292.96 287.684c7.96 7.818 20.718 7.818 28.678 0l292.96-287.684c8.066-7.919 8.182-20.877 0.264-28.942-4.007-4.081-9.304-6.128-14.604-6.128z" />
<glyph unicode="&#xe92c;" glyph-name="left" d="M670.978 172.379c-5.301 0-10.596 2.046-14.604 6.127l-287.684 292.96c-7.818 7.961-7.818 20.718 0 28.679l287.684 292.96c7.92 8.066 20.877 8.182 28.942 0.263s8.182-20.877 0.264-28.942l-273.603-278.62 273.603-278.621c7.918-8.065 7.802-21.023-0.264-28.942-3.985-3.913-9.163-5.865-14.339-5.865z" />
<glyph unicode="&#xe92d;" glyph-name="minus" d="M875.263 469.808c0-11.308-9.159-20.466-20.466-20.466h-655.325c-11.308 0-20.466 9.159-20.466 20.466 0 11.297 9.159 20.466 20.466 20.466h655.325c11.308 0 20.466-9.169 20.466-20.466z" />
<glyph unicode="&#xe92e;" glyph-name="pic" d="M802.179 663.535c0-33.923-27.506-61.439-61.439-61.439-33.943 0-61.439 27.517-61.439 61.439 0 33.933 27.496 61.439 61.439 61.439 33.933 0 61.439-27.506 61.439-61.439zM983.059 299.934v543.007h-942.117v-778.265h942.117v43.982l-287.058 299.808-149.045-149.055c-7.992-7.992-20.957-7.992-28.949 0s-7.992 20.957 0 28.949l47.584 47.584-198.020 216.030-226.335-213.022c-8.227-7.746-21.182-7.347-28.929 0.88s-7.358 21.182 0.88 28.929l241.429 227.225c3.981 3.756 9.292 5.761 14.777 5.546 5.475-0.194 10.632-2.579 14.337-6.621l210.832-229.998 87.288 87.288c3.889 3.889 9.159 6.017 14.695 5.986 5.505-0.061 10.755-2.333 14.562-6.304l307.197-320.858c3.653-3.807 5.69-8.882 5.69-14.152v-72.665c0-11.308-9.169-20.466-20.466-20.466h-983.049c-11.297 0-20.466 9.159-20.466 20.466v819.198c0 11.297 9.169 20.466 20.466 20.466h983.049c11.297 0 20.466-9.169 20.466-20.466v-563.473c0-11.308-9.169-20.466-20.466-20.466-11.308 0-20.466 9.159-20.466 20.466z" />
<glyph unicode="&#xe92f;" glyph-name="question" d="M546.498 298.075v-59.221c0-4.125-2.753-6.888-6.878-6.888h-52.332c-4.163 0-6.898 2.763-6.898 6.888v59.221c0 4.125 2.734 6.888 6.898 6.888h52.332c4.125 0 6.878-2.763 6.878-6.888zM642.203 590.734c0-33.059-11.685-57.168-35.103-89.526l-46.145-63.346c-13.757-18.592-17.902-28.224-17.902-51.651v-22.027c0-4.125-2.744-6.888-6.888-6.888h-45.444c-4.145 0-6.888 2.763-6.888 6.888v28.224c0 27.552 6.187 42 20.646 61.984l46.163 63.355c24.080 33.050 32.33 48.878 32.33 72.296 0 39.246-27.533 64.037-66.79 64.037-38.546 0-63.336-23.398-71.606-65.418-0.7-4.125-3.434-6.198-7.579-5.516l-43.362 7.588c-4.145 0.691-6.207 3.434-5.535 7.569 10.351 66.109 57.859 109.49 129.484 109.49 74.349 0 124.619-48.889 124.619-117.060zM991.991 468.004c0-85.554-22.794-169.555-65.916-242.907-5.373-9.142-17.124-12.193-26.257-6.821-9.142 5.373-12.193 17.124-6.821 26.267 39.659 67.461 60.621 144.737 60.621 223.461 0 59.623-11.676 117.463-34.7 171.896-22.237 52.581-54.079 99.811-94.64 140.372s-87.79 72.411-140.381 94.649c-54.433 23.024-112.263 34.69-171.896 34.69s-117.463-11.665-171.896-34.69c-52.592-22.237-99.82-54.088-140.381-94.649s-72.402-87.79-94.64-140.372c-23.024-54.433-34.7-112.273-34.7-171.896 0-59.633 11.676-117.463 34.7-171.896 22.237-52.581 54.079-99.811 94.64-140.381 40.561-40.561 87.79-72.402 140.381-94.64 54.433-23.024 112.263-34.7 171.896-34.7 110.574 0 216.371 41.061 297.906 115.601 7.819 7.147 19.955 6.6 27.101-1.219s6.61-19.955-1.208-27.101c-88.625-81.026-203.622-125.656-323.799-125.656-64.794 0-127.66 12.692-186.842 37.731-57.168 24.175-108.493 58.779-152.565 102.852s-78.676 95.407-102.852 152.565c-25.039 59.182-37.731 122.048-37.731 186.842s12.692 127.651 37.731 186.842c24.175 57.158 58.779 108.483 102.852 152.565 44.073 44.073 95.398 78.676 152.565 102.852 59.182 25.029 122.048 37.721 186.842 37.721s127.66-12.692 186.842-37.721c57.168-24.175 108.493-58.779 152.565-102.852 44.073-44.082 78.676-95.407 102.852-152.565 25.029-59.192 37.731-122.048 37.731-186.842z" />
<glyph unicode="&#xe930;" glyph-name="right" d="M383.292 172.379c-5.176 0-10.354 1.95-14.339 5.863-8.065 7.919-8.182 20.877-0.263 28.942l273.602 278.621-273.602 278.622c-7.919 8.065-7.802 21.023 0.263 28.942s21.023 7.803 28.942-0.263l287.685-292.96c7.818-7.961 7.818-20.718 0-28.679l-287.685-292.959c-4.007-4.081-9.304-6.128-14.604-6.128z" />
<glyph unicode="&#xe931;" glyph-name="search" d="M760.090 717.782c-17.478 41.321-42.488 78.426-74.343 110.282s-68.961 56.865-110.282 74.343c-42.784 18.092-88.219 27.271-135.056 27.271-46.826 0-92.261-9.179-135.056-27.271-41.311-17.478-78.416-42.488-110.271-74.343s-56.865-68.961-74.343-110.282c-18.092-42.784-27.271-88.219-27.271-135.056 0-46.826 9.179-92.261 27.271-135.056 17.478-41.311 42.488-78.416 74.343-110.271s68.961-56.865 110.271-74.343c42.795-18.092 88.229-27.271 135.056-27.271 46.837 0 92.272 9.179 135.056 27.271 41.321 17.478 78.426 42.488 110.282 74.343s56.865 68.961 74.343 110.271c18.092 42.795 27.271 88.229 27.271 135.056 0 46.837-9.179 92.272-27.271 135.056zM656.798 366.347c-57.796-57.796-134.647-89.631-216.388-89.631s-158.582 31.835-216.378 89.631c-57.796 57.786-89.631 134.636-89.631 216.378s31.835 158.592 89.631 216.388 134.636 89.631 216.378 89.631 158.592-31.835 216.388-89.631c57.796-57.796 89.631-134.647 89.631-216.388s-31.835-158.592-89.631-216.378zM954.805 47.936c-3.991-4.001-9.23-5.997-14.47-5.997s-10.479 1.995-14.47 5.997l-193.855 193.845c-7.982 7.992-7.982 20.947 0 28.939 8.002 7.992 20.957 7.992 28.949 0l193.845-193.845c7.992-7.992 7.992-20.947 0-28.939z" />
<glyph unicode="&#xe932;" glyph-name="square" d="M832 53.333h-640c-52.928 0-96 43.072-96 96v640c0 52.928 43.072 96 96 96h640c52.928 0 96-43.072 96-96v-640c0-52.928-43.072-96-96-96zM181.091 833.333c-18.233 0-33.091-14.858-33.091-33.091v-661.818c0-18.267 14.858-33.091 33.091-33.091h661.818c18.267 0 33.091 14.824 33.091 33.091v661.818c0 18.233-14.824 33.091-33.091 33.091h-661.818z" />
<glyph unicode="&#xe933;" glyph-name="square-check" d="M726.976 588.149c-12.544 12.448-32.831 12.32-45.247-0.256l-233.28-235.808-103.265 106.112c-12.352 12.704-32.607 12.928-45.248 0.64-12.672-12.32-12.96-32.607-0.64-45.248l126.017-129.504c0.063-0.096 0.191-0.096 0.256-0.192 0.063-0.063 0.096-0.191 0.16-0.256 2.016-1.983 4.512-3.199 6.88-4.544 1.248-0.672 2.239-1.792 3.52-2.304 3.872-1.6 8-2.4 12.096-2.4 4.064 0 8.128 0.801 11.969 2.336 1.248 0.513 2.208 1.536 3.392 2.177 2.4 1.344 4.896 2.527 6.944 4.544 0.063 0.063 0.096 0.191 0.191 0.256 0.064 0.096 0.16 0.128 0.256 0.191l256.223 259.008c12.448 12.544 12.32 32.8-0.224 45.248zM832 53.333h-640c-52.928 0-96 43.072-96 96v640c0 52.928 43.072 96 96 96h640c52.928 0 96-43.072 96-96v-640c0-52.928-43.072-96-96-96zM181.091 833.333c-18.233 0-33.091-14.858-33.091-33.091v-661.818c0-18.267 14.858-33.091 33.091-33.091h661.818c18.267 0 33.091 14.824 33.091 33.091v661.818c0 18.233-14.824 33.091-33.091 33.091h-661.818z" />
<glyph unicode="&#xe934;" glyph-name="square-fill" d="M832 885.333h-640c-52.928 0-96-43.072-96-96v-640c0-52.928 43.072-96 96-96h640c52.928 0 96 43.072 96 96v640c0 52.928-43.072 96-96 96zM727.232 542.901l-256.224-259.008c-0.064-0.064-0.192-0.096-0.256-0.192-0.096-0.064-0.096-0.192-0.192-0.256-2.048-1.984-4.576-3.2-6.944-4.544-1.184-0.672-2.144-1.696-3.392-2.176-3.84-1.536-7.904-2.336-11.968-2.336-4.096 0-8.224 0.8-12.096 2.4-1.28 0.544-2.304 1.632-3.52 2.304-2.368 1.344-4.832 2.528-6.88 4.544-0.064 0.064-0.096 0.192-0.16 0.256-0.064 0.096-0.192 0.096-0.256 0.192l-126.016 129.504c-12.32 12.672-12.032 32.928 0.64 45.248 12.672 12.288 32.896 12.064 45.248-0.64l103.264-106.112 233.28 235.808c12.416 12.576 32.704 12.672 45.248 0.256 12.512-12.448 12.64-32.704 0.224-45.248z" />
<glyph unicode="&#xe935;" glyph-name="time" d="M512 901.333c-247.040 0-448-200.96-448-448s200.96-448 448-448 448 200.96 448 448-200.96 448-448 448zM512 57.333c-218.36 0-396 177.674-396 396 0 218.36 177.64 396 396 396 218.326 0 396-177.64 396-396 0-218.326-177.674-396-396-396zM671.968 453.333h-159.968v223.936c0 17.76-14.24 32.128-32 32.128s-32-14.4-32-32.128v-255.936c0-17.76 14.272-32 32-32h191.968c17.761 0 32.128 14.24 32.128 32s-14.367 32-32.128 32z" />
<glyph unicode="&#xe936;" glyph-name="to-down" d="M764.624 367.258l-223.009-223.009c-3.837-3.837-9.046-5.997-14.48-5.997-5.424 0-10.632 2.159-14.47 5.997l-223.019 223.019c-7.992 7.992-7.992 20.957 0 28.949s20.957 7.992 28.949 0l188.073-188.084v604.753c0 11.308 9.159 20.466 20.466 20.466 11.297 0 20.466-9.159 20.466-20.466v-604.753l188.073 188.063c7.992 7.992 20.957 8.002 28.949 0.010 7.992-8.002 7.992-20.957 0-28.949z" />
<glyph unicode="&#xe937;" glyph-name="to-left" d="M874.69 485.808c0-11.297-9.169-20.466-20.466-20.466h-604.774l188.084-188.084c7.992-7.992 7.992-20.947 0-28.939-4.001-3.991-9.24-5.997-14.47-5.997-5.239 0-10.479 1.995-14.48 5.997l-223.009 223.009c-3.837 3.837-5.997 9.046-5.997 14.47 0 5.434 2.159 10.632 5.997 14.47l223.019 223.030c7.992 7.992 20.957 7.992 28.949 0 7.992-8.002 7.992-20.957 0-28.949l-188.073-188.073h604.753c11.297 0 20.466-9.159 20.466-20.466z" />
<glyph unicode="&#xe938;" glyph-name="to-right" d="M874.69 485.798c0-5.424-2.159-10.632-5.997-14.47l-223.009-223.009c-4.001-3.991-9.24-5.997-14.47-5.997-5.239 0-10.479 1.995-14.48 5.997-7.992 7.992-7.992 20.947 0 28.939l188.084 188.084h-604.774c-11.297 0-20.466 9.169-20.466 20.466 0 11.308 9.169 20.466 20.466 20.466h604.753l-188.073 188.073c-7.992 7.992-7.992 20.947 0 28.949 7.992 7.992 20.957 7.992 28.949 0l223.019-223.030c3.837-3.837 5.997-9.036 5.997-14.47z" />
<glyph unicode="&#xe939;" glyph-name="to-top" d="M764.624 565.166c-4.001-3.991-9.24-5.997-14.47-5.997-5.239 0-10.479 1.995-14.48 5.997l-188.073 188.084v-604.764c0-11.308-9.159-20.466-20.466-20.466-11.297 0-20.466 9.159-20.466 20.466v604.764l-188.073-188.073c-7.992-7.992-20.957-7.992-28.949 0s-7.992 20.947 0 28.939l223.009 223.019c3.837 3.837 9.046 5.986 14.48 5.986 5.424 0 10.632-2.149 14.47-5.986l223.019-223.030c7.992-7.992 7.992-20.947 0-28.939z" />
<glyph unicode="&#xe93a;" glyph-name="down" d="M527.135 315.357c-5.18 0-10.359 1.955-14.34 5.863l-292.96 287.686c-8.065 7.919-8.182 20.877-0.263 28.942 7.92 8.065 20.879 8.181 28.942 0.263l278.62-273.603 278.621 273.603c8.064 7.918 21.023 7.802 28.942-0.263s7.802-21.023-0.264-28.942l-292.958-287.685c-3.981-3.909-9.161-5.864-14.34-5.864z" />
<glyph unicode="&#xe93b;" glyph-name="mail" d="M961.871 661.582v150.641h-897.695v-652.839h897.695v342.705c0 11.308 9.159 20.466 20.466 20.466 11.297 0 20.466-9.159 20.466-20.466v-363.171c0-11.297-9.169-20.466-20.466-20.466h-938.628c-11.308 0-20.466 9.169-20.466 20.466v693.771c0 11.308 9.159 20.466 20.466 20.466h938.628c11.297 0 20.466-9.159 20.466-20.466v-182.026c0-6.815-3.408-13.19-9.066-16.987l-428.499-287.59c-6.754-4.523-15.534-4.636-22.38-0.276l-383.361 243.588c-9.537 6.058-12.362 18.706-6.293 28.243 6.058 9.537 18.706 12.362 28.243 6.304l372.074-236.414 408.35 274.052z" />
<glyph unicode="&#xe93c;" glyph-name="qq-zone" d="M957.434 569.075c-8.281 23.668-309.126 44.822-309.126 44.822s-111.286 279.42-138.2 279.42c-26.91 0-138.254-279.42-138.254-279.42s-299.562-21.042-309.127-44.822c-9.567-23.773 223.693-217.515 223.693-217.515s-68.876-294.215-52.817-307.104c16.11-12.895 276.45 145.009 276.45 145.009s258.38-163.377 276.509-145.009c13.315 13.506-22.436 178.836-41.795 262.452-0.615 2.677-101.048-11.166-212.389-11.891-98.864-0.669-209.145 6.031-209.145 6.031l257.429 191.17c0 0-80.009 14.569-140.769 20.036-86.838 7.815-162.927 7.648-153.472 10.046 15.051 3.797 120.573 13.678 223.689 10.050 94.112-3.351 187.212-20.040 187.212-20.040l-257.428-183.133c0 0 56.227-8.653 102.893-10.441 88.904-3.404 197.393-0.948 197.172 0-3.304 14.009-6.21 32.824-6.21 32.824s231.969 193.85 223.688 217.515v0z" />
<glyph unicode="&#xe93d;" glyph-name="user" d="M959.3-50.75c0 0-877.821 0-905.961 0-28.245 0-45.339 46.431-45.339 46.431s0 13.293 0 46.494c0 65.961 201.831 169.785 234.423 181.986 232.554 87.36 102.375 229.089 102.774 229.089-52.164 59.913-85.197 144.984-85.197 232.617 0 162.372 112.791 271.383 252 271.383 139.188 0 239.925-109.767 252-271.383 8.274-110.565-85.554-232.617-85.176-232.617-121.17-119.889 53.592-201.516 53.928-202.062 267.162-139.44 283.248-210.315 283.248-210.315s0-21.231 0-45.843c0-24.381-56.7-45.78-56.7-45.78v0zM974 37.47c-139.839 143.22-289.338 153.342-355.404 251.58-0.063 1.26-87.57 84.924 40.068 205.212 0.126 0.189 8.085-0.189 0 0 39.060 51.576 63.336 121.212 63.336 191.877 0 139.209-94.059 229.089-210 229.089-115.983 0-210-89.922-210-229.089 0-84.483 34.776-167.433 87.948-219.807 27.069-39.144 62.559-111.405 15.456-177.261-64.638-85.239-285.852-143.829-355.404-251.601 0-28.959 0-46.221 0-46.221h924c0 0 0 33.684 0 46.221v0z" />
<glyph unicode="&#xe93e;" glyph-name="star" d="M768 362.688l85.333-405.355-341.333 213.333-341.333-213.333 85.333 405.355-256 234.645 362.645 42.667 149.355 341.333 149.355-341.333 362.645-42.667-256-234.645zM640 597.333l-128 298.667-128-298.667-298.667-21.355 213.333-191.979-63.957-341.333 277.291 170.667 277.355-170.667-64.021 341.333 213.333 191.979-298.667 21.355z" />
<glyph unicode="&#xe93f;" glyph-name="star-fill" d="M853.333-42.667l-341.333 213.333-341.333-213.333 85.333 405.355-256 234.645 362.688 42.667 149.312 341.333 149.376-341.333 362.624-42.667-256-234.645 85.333-405.355z" />
<glyph unicode="&#xe940;" glyph-name="play" d="M192 832l640-384-640-384z" />
<glyph unicode="&#xe941;" glyph-name="camera" d="M946.432 29.12h-868.864c-42.816 0-77.568 34.688-77.568 77.504v589.632c0 42.816 34.752 77.568 77.568 77.568h155.136l93.12 93.12h372.352l93.056-93.12h155.2c42.816 0 77.568-34.752 77.568-77.568v-589.632c0-42.816-34.752-77.504-77.568-77.504v0zM512 727.232c-171.392 0-310.272-138.88-310.272-310.272s138.88-310.336 310.272-310.336 310.336 138.944 310.336 310.336c0 171.392-138.944 310.272-310.336 310.272v0zM512 215.232c-111.36 0-201.664 90.368-201.664 201.728s90.304 201.664 201.664 201.664 201.664-90.304 201.664-201.664c0-111.36-90.304-201.728-201.664-201.728v0z" />
<glyph unicode="&#xe942;" glyph-name="cart" d="M1024 853.312l-85.376-405.312-21.248 10.624v-4.8c0-3.2-4.864-5.824-11.008-5.824h-447.36c-6.144 0-11.008 2.624-11.008 5.824v30.976c0 3.2 4.928 5.888 11.008 5.888h441.472l31.488 149.312h-515.52c-6.144 0-11.136 2.624-11.136 5.888v30.912c0 3.264 4.992 5.888 11.136 5.888h524.416l31.488 149.568c-0.704-0.128-1.408-0.256-2.24-0.256h-596.224c-6.144 0-11.2 2.624-11.2 5.824v30.912c0 3.264 5.056 5.952 11.2 5.952h596.224c4.736 0 8.768-1.6 10.368-3.904l0.896 3.904 42.624-21.376zM896 293.056v-31.424c0-3.136-2.496-5.632-5.632-5.632h-564.736c-1.28 0-2.176 0.64-3.136 1.28l-2.496-1.28-128 618.688h-186.432c-3.072 0-5.568 2.432-5.568 5.568v31.488c0 3.136 2.496 5.568 5.568 5.568h223.488c3.072 0 5.632-2.432 5.632-5.568v-15.744l123.584-597.312h532.096c3.136 0 5.632-2.496 5.632-5.632v0zM448 149.312c47.168 0 85.312-38.208 85.312-85.312s-38.208-85.312-85.312-85.312c-47.104 0-85.312 38.208-85.312 85.312s38.144 85.312 85.312 85.312v0zM448 21.312c23.616 0 42.688 19.136 42.688 42.688s-19.136 42.688-42.688 42.688c-23.552 0-42.688-19.136-42.688-42.688s19.136-42.688 42.688-42.688v0zM768 149.312c47.104 0 85.376-38.208 85.376-85.312s-38.272-85.312-85.376-85.312-85.376 38.208-85.376 85.312 38.272 85.312 85.376 85.312v0zM768 21.312c23.616 0 42.624 19.136 42.624 42.688s-19.008 42.688-42.624 42.688-42.624-19.136-42.624-42.688 19.008-42.688 42.624-42.688v0z" />
<glyph unicode="&#xe943;" glyph-name="mic" d="M530.24 82.752v-110.208h82.304c5.056 0 9.216-4.032 9.216-9.152v-18.304c0-4.992-4.16-9.088-9.216-9.088h-201.088c-5.056 0-9.216 4.096-9.216 9.152v18.304c0 5.056 4.096 9.152 9.216 9.152h82.24v110.208c-162.304 4.8-292.544 137.6-292.544 301.184v64h36.608v-64c0-146.432 118.656-265.152 265.152-265.152h18.24c146.496 0 265.216 118.656 265.216 265.152v64h36.544v-64c-0.064-163.584-130.304-296.384-292.672-301.248v0zM521.152 173.76h-18.304c-116.16 0-210.304 94.144-210.304 210.24v365.696c0 116.16 94.144 210.304 210.304 210.304h18.24c116.16 0 210.304-94.144 210.304-210.304v-365.696c0.064-116.096-94.080-210.24-210.24-210.24v0z" />
<glyph unicode="&#xe944;" glyph-name="price-sign" d="M512-64c-282.752 0-512 229.248-512 512 0 282.688 229.248 512 512 512s512-229.312 512-512c0-282.752-229.248-512-512-512v0zM512 917.312c-259.2 0-469.312-210.112-469.312-469.312 0-259.264 210.112-469.376 469.312-469.376 259.264 0 469.376 210.112 469.376 469.376 0 259.2-210.112 469.312-469.376 469.312v0zM736 469.312h-202.688v-128h181.312c5.888 0 10.752-4.8 10.752-10.688v-21.248c0-5.888-4.864-10.752-10.752-10.752h-181.312v-202.624c0-5.888-4.736-10.688-10.688-10.688h-21.312c-5.888 0-10.688 4.8-10.688 10.688v202.624h-181.312c-5.888 0-10.624 4.864-10.624 10.752v21.248c0 5.888 4.736 10.688 10.624 10.688h181.312v128h-202.624c-5.888 0-10.688 4.8-10.688 10.688v21.312c0 5.888 4.736 10.688 10.688 10.688h153.088l-160.384 179.776c-4.096 4.096-4.096 10.88 0 15.040l15.104 15.104c4.224 4.16 10.944 4.16 15.104 0l176.256-197.632c3.456-3.392 3.328-8.32 1.216-12.288h48.192c-2.56 4.096-2.688 9.344 0.896 12.864l175.040 196.288c4.096 4.16 10.816 4.16 14.976 0l14.976-14.976c4.096-4.16 4.096-10.88 0-15.040l-159.68-179.136h153.216c5.888 0 10.624-4.736 10.624-10.688v-21.312c0-5.888-4.736-10.688-10.624-10.688v0z" />
<glyph unicode="&#xe945;" glyph-name="reel" d="M845.888-64c0 0-637.376 0-689.984 0 1.792 0.192 3.776 0.384 5.952 0.512-77.504 2.816-139.52 66.048-139.52 144.192 0 79.936 64.768 144.704 144.704 144.704 33.28 0 63.68-11.52 87.936-30.464l-40.128-26.752c-14.208 7.808-30.4 12.672-47.808 12.672-55.296 0-100.16-44.864-100.16-100.16s44.864-100.16 100.16-100.16c46.016 0 84.352 31.232 96.064 73.536l4.032-6.72 21.824 109.44c1.28-1.984 2.688-3.904 3.84-5.952 11.52 71.808 18.88 168 18.88 297.152 0 128-7.552 223.808-19.584 295.808-0.96-1.664-2.112-3.136-3.136-4.672l-21.824 109.504-4.032-6.784c-11.712 42.304-50.112 73.536-96.128 73.536-55.296 0-100.16-44.864-100.16-100.16s44.864-100.16 100.16-100.16c17.344 0 33.472 4.8 47.744 12.608l40.192-26.752c-24.256-19.008-54.656-30.336-87.936-30.336-79.936 0-144.704 64.768-144.704 144.64 0 77.568 61.184 140.416 137.984 144-3.84 0.384-7.488 0.576-10.944 0.64 102.464 0 674.24 0 674.24 0s178.112-21.312 178.112-511.872c0-490.24-155.776-512-155.776-512v0zM813.44 915.392c0 0-506.368 0-544 0-1.856 0.192-2.688 0-2.304 0 0.128 0 1.024 0 2.304 0 14.016-1.856 86.72-34.56 86.72-467.392 0-456.256-84.032-467.456-89.024-467.456-4.928 0 564.736 0.32 564.736 0.32s125.248 22.016 125.248 467.328-143.68 467.2-143.68 467.2v0zM857.024 180.864h-422.912c-6.144 0-11.2 4.928-11.2 11.072v22.336c0 6.208 5.056 11.136 11.2 11.136h422.912c6.144 0 11.136-4.928 11.136-11.136v-22.336c-0.064-6.144-5.056-11.072-11.136-11.072v0zM857.024 425.728h-422.912c-6.144 0-11.2 4.992-11.2 11.136v22.208c0 6.144 5.056 11.2 11.2 11.2h422.912c6.144 0 11.136-5.056 11.136-11.2v-22.208c-0.064-6.144-5.056-11.136-11.136-11.136v0zM857.024 670.592h-422.912c-6.144 0-11.2 4.928-11.2 11.072v22.336c0 6.144 5.056 11.072 11.2 11.072h422.912c6.144 0 11.136-4.928 11.136-11.072v-22.336c-0.064-6.144-5.056-11.072-11.136-11.072v0zM143.744 959.936h5.632c-9.984 0-15.808 0-15.808 0 4.672 0 4.352 0.192 10.176 0v0z" />
<glyph unicode="&#xe946;" glyph-name="video" d="M896 21.376h-768c-70.656 0-128 57.28-128 128v597.312c0 70.656 57.344 128 128 128h768c70.656 0 128-57.344 128-128v-597.312c0-70.72-57.344-128-128-128v0zM981.248 746.688c0 47.104-38.144 85.312-85.248 85.312h-768c-47.104 0-85.312-38.208-85.312-85.312v-597.312c0-47.104 38.208-85.376 85.312-85.376h768c47.104 0 85.248 38.272 85.248 85.376v597.312zM341.376 661.312l384-213.312-384-213.312v426.624zM384 320l256 128-256 128v-256z" />
<glyph unicode="&#xe947;" glyph-name="card" d="M959.936 362.667v-298.667c0-58.965-47.701-106.667-106.603-106.667h-192.043v42.667h192.043c35.307 0 64 28.629 64 64v298.667h-256.043v42.688h320.021v234.645c0 47.104-38.187 85.312-85.355 85.312h-277.291v-767.979h-213.333v767.979h-277.355c-47.104 0-85.312-38.208-85.312-85.312v-234.645h319.957v-42.688h-255.957v-298.667c0-35.371 28.629-64 64-64h191.979v-42.667h-191.979c-58.901 0-106.667 47.701-106.667 106.667v298.667h-64v277.333c0 70.677 57.301 128 127.979 128h32.917c-20.331 17.856-32.917 39.851-32.917 63.979 0 58.901 71.659 106.688 159.979 106.688 77.44 0 141.995-36.672 156.864-85.376h134.379c14.784 48.704 79.317 85.376 156.779 85.376 88.384 0 159.979-47.787 159.979-106.688 0-24.128-12.523-46.123-32.853-63.979h32.853c70.677 0 128.064-57.323 128.064-128v-277.333h-64.085zM405.333 810.667h-7.189c4.352 6.699 7.189 13.824 7.189 21.312 0 35.307-52.501 64-117.355 64-64.789 0-117.312-28.693-117.312-64 0-33.387 46.976-60.416 106.667-63.445v-0.533h128v42.667zM575.979 810.667h-127.979v-810.667h127.979v810.667zM735.979 895.979c-64.789 0-117.312-28.693-117.312-64 0-7.488 2.837-14.613 7.189-21.312h-7.189v-42.667h127.979v0.533c59.712 3.029 106.688 30.123 106.688 63.445 0 35.307-52.565 64-117.355 64v0z" />
<glyph unicode="&#xe948;" glyph-name="close-sign" d="M512 910.182c-257.071 0-465.455-208.384-465.455-465.455s208.384-465.455 465.455-465.455c257.071 0 465.455 208.384 465.455 465.455s-208.384 465.455-465.455 465.455zM512 25.818c-231.377 0-418.909 187.532-418.909 418.909s187.532 418.909 418.909 418.909c231.377 0 418.909-187.532 418.909-418.909s-187.532-418.909-418.909-418.909zM725.923 658.65c-9.076 9.076-23.831 9.076-32.908 0l-181.015-181.015-181.015 181.015c-9.076 9.076-23.831 9.076-32.908 0s-9.076-23.831 0-32.908l181.015-181.015-181.015-181.015c-9.076-9.076-9.076-23.831 0-32.908s23.831-9.076 32.908 0l181.015 181.015 181.015-181.015c9.076-9.076 23.831-9.076 32.908 0s9.076 23.831 0 32.908l-181.015 181.015 181.015 181.015c9.076 9.076 9.076 23.831 0 32.908z" />
<glyph unicode="&#xe949;" glyph-name="ok-sign" d="M512 910.182c-257.071 0-465.455-208.384-465.455-465.455s208.384-465.455 465.455-465.455c257.071 0 465.455 208.384 465.455 465.455s-208.384 465.455-465.455 465.455zM512 25.818c-231.377 0-418.909 187.532-418.909 418.909s187.532 418.909 418.909 418.909c231.377 0 418.909-187.532 418.909-418.909s-187.532-418.909-418.909-418.909zM734.161 586.598l-312.692-312.692-131.631 131.631c-9.076 9.076-23.831 9.076-32.908 0s-9.076-23.831 0-32.908l148.108-148.108c9.076-9.076 23.831-9.076 32.908 0l329.123 329.123c9.076 9.076 9.076 23.831 0 32.908-9.076 9.123-23.831 9.123-32.908 0.047z" />
<glyph unicode="&#xe94a;" glyph-name="heart-sign" d="M512-64c-10.688 0-21.184 0.96-31.744 1.6-3.52-0.96-7.104-1.6-10.88-1.6h-341.376c-23.552 0-42.688 19.072-42.688 42.624v186.56c-53.824 81.088-85.312 178.24-85.312 282.816 0 282.752 229.248 512 512 512 282.688 0 512-229.248 512-512 0-282.816-229.248-512-512-512v0zM512 917.312c-259.136 0-469.312-210.112-469.312-469.312 0-100.224 31.744-193.088 85.312-269.376v-200h341.376v2.176c14.080-1.28 28.288-2.176 42.624-2.176 259.072 0 469.312 210.112 469.312 469.376 0 259.2-210.176 469.312-469.312 469.312v0zM512.256 170.688c-3.136 21.44-256.256 175.168-256.256 302.528 0 182.656 190.080 217.536 256 60.16 71.872 151.040 256 128.448 256-60.16 0-125.12-248.96-275.648-255.744-302.528v0zM510.272 466.24c-83.072 185.856-209.408 124.288-211.584 3.072-0.704-71.232 144.96-179.136 211.584-234.688 109.44 89.344 219.2 180.288 215.040 234.688-8.96 195.776-176.064 104.256-215.040-3.072v0z" />
<glyph unicode="&#xe94b;" glyph-name="thumbs-fill2" d="M3.776 442.24c0-6.592 0-454.912 0-447.744-1.6-46.4 57.984-58.496 57.984-58.496s13.056 0 35.136 0v581.696h-23.296c0 0-52.608-0.256-69.824-75.456v0zM981.44 540.992c0 0-195.392 1.344-256.064 0-55.872-1.344-86.848 9.28-69.824 69.824 62.080 207.424 11.392 349.184-93.056 349.184-114.24 0.32-114.816-244.992-116.48-279.36-42.432-149.632-186.176-162.944-186.176-162.944h-116.352v-581.696c173.184 0 569.216 0.128 659.52 0 116.416-0.32 104.192 70.528 104.192 70.528l34.816 70.656-23.296 70.592 58.048 70.656-23.232 105.92c0 0 41.408 48.512 57.984 105.984 30.912 58.304-30.080 110.656-30.080 110.656v0z" />
<glyph unicode="&#xe94c;" glyph-name="fire" d="M843.627 97.237c0 0-114.432-161.237-336.299-161.237s-329.216 162.197-345.963 187.883c-39.936 71.317-54.080 138.155-52.992 198.229 2.944 162.688 117.696 276.16 135.36 296.555-9.131-108.224 16.747-120.853 37.76-133.077-22.635 270.699 143.317 350.272 173.397 360.64-23.936-50.624-19.605-145.963-14.848-182.165 105.984 68.331 72.469 295.936 72.469 295.936 191.936-105.045 179.307-273.152 177.387-347.584 25.365 18.965 48.107 76.8 53.013 120.021 69.056-60.139 172.8-192.235 172.8-373.675 0-181.483-72.085-261.525-72.085-261.525v0zM762.112 656.576c0 0-39.552-75.328-76.8-113.771-86.763 0 0.128 221.013-134.4 341.333 0 0 26.219-237.056-115.179-265.472-10.069 3.627-83.627-10.56-38.421 151.723-76.928-133.184-78.272-274.667-76.8-322.389-5.973-4.715-68.523-34.624-115.2 56.917-26.859-74.901-88.597-152.619-19.221-341.355 17.963-33.984 107.52-189.675 326.421-189.675 218.88 0 326.4 189.675 326.4 189.675s38.4 78.016 38.4 189.632c0 158.677-115.2 303.381-115.2 303.381v0zM189.461 666.688c5.525 15.765 4.053 15.808 0 53.568-3.989 37.824 39.275 58.475 39.275 58.475-2.432-42.987 4.224-32.448 9.813-63.339-13.013-32.939-27.072-34.56-49.088-48.704v0z" />
<glyph unicode="&#xe94d;" glyph-name="vote" d="M979.52-41.728h-934.976c-24.64 0-44.544 19.904-44.544 44.48v89.088c0 24.64 19.904 44.48 44.544 44.48h44.48v756.864c0 24.64 19.904 44.544 44.544 44.544h133.568c24.64 0 44.544-19.968 44.544-44.544v-756.864h89.024v623.296c0 24.64 19.904 44.544 44.544 44.544h133.504c24.64 0 44.544-19.968 44.544-44.544v-623.296h89.088v356.16c0 24.64 19.904 44.544 44.48 44.544h133.568c24.576 0 44.544-19.968 44.544-44.544v-356.16h44.48c24.64 0 44.48-19.904 44.48-44.48v-89.088c0.064-24.576-19.84-44.48-44.416-44.48v0zM979.52 91.84h-89.088v400.64h-133.568v-400.704h-178.112v667.84h-133.504v-667.84h-178.112v801.408h-133.568v-801.344h-89.024v-89.088h934.976v89.088z" />
<glyph unicode="&#xe94e;" glyph-name="voice" d="M567.317-64l-68.8 68.715c163.157 80.896 275.669 248.789 275.669 443.264 0 194.56-112.427 362.411-275.669 443.243l68.8 68.779c178.688-100.821 299.605-292.117 299.605-512.021s-120.917-411.2-299.605-511.979v0zM199.381 447.979c0 39.787-16.171 75.776-42.283 101.867l76.331 76.309c45.547-45.632 73.749-108.608 73.749-178.197 0-69.568-28.117-132.48-73.749-178.112l-76.245 76.181c26.027 26.091 42.197 62.165 42.197 101.952v0zM487.509 447.979c0 117.227-63.701 218.816-157.611 274.645l72.875 72.875c111.253-75.435 184.363-202.965 184.363-347.456 0-144.512-73.195-272.021-184.363-347.477l-72.96 73.045c93.973 55.659 157.696 157.12 157.696 274.368v0z" />
<glyph unicode="&#xe94f;" glyph-name="comment" d="M674.88 122.176h-488.683c-128.555 0-186.197 57.643-186.197 186.176v465.451c0 128.555 57.643 186.197 186.197 186.197h651.648c128.533 0 186.155-57.643 186.155-186.197v-837.803l-349.12 186.176zM256.021 596.949c-30.912 0-55.893-25.003-55.893-55.829 0-30.912 24.981-55.893 55.893-55.893 30.827 0 55.829 24.981 55.829 55.893 0 30.848-25.003 55.829-55.829 55.829v0zM512.043 596.949c-30.912 0-55.915-25.003-55.915-55.829 0-30.912 25.003-55.893 55.915-55.893 30.805 0 55.808 24.981 55.808 55.893 0 30.848-25.003 55.829-55.808 55.829v0zM767.957 596.949c-30.805 0-55.808-25.003-55.808-55.829 0-30.912 25.003-55.893 55.808-55.893 30.912 0 55.915 24.981 55.915 55.893 0 30.848-25.003 55.829-55.915 55.829v0z" />
<glyph unicode="&#xeabf;" glyph-name="apple" d="M791.498 437.241c-1.294 129.682 105.758 191.876 110.542 194.966-60.152 88.020-153.85 100.078-187.242 101.472-79.742 8.074-155.596-46.948-196.066-46.948-40.368 0-102.818 45.754-168.952 44.552-86.916-1.292-167.058-50.538-211.812-128.38-90.304-156.698-23.126-388.84 64.89-515.926 43.008-62.204 94.292-132.076 161.626-129.58 64.842 2.588 89.362 41.958 167.756 41.958s100.428-41.958 169.050-40.67c69.774 1.296 113.982 63.398 156.692 125.796 49.39 72.168 69.726 142.038 70.924 145.626-1.548 0.706-136.060 52.236-137.408 207.134zM662.562 817.811c35.738 43.358 59.86 103.512 53.28 163.522-51.478-2.096-113.878-34.29-150.81-77.55-33.142-38.376-62.148-99.626-54.374-158.436 57.466-4.484 116.128 29.204 151.904 72.464z" />
<glyph unicode="&#xeac1;" glyph-name="android" d="M896 597.333c-35.2 0-64-28.8-64-64v-256c0-35.2 28.8-64 64-64s64 28.8 64 64v256c0 35.2-28.8 64-64 64zM128 597.333c-35.2 0-64-28.8-64-64v-256c0-35.2 28.8-64 64-64s64 28.8 64 64v256c0 35.2-28.802 64-64 64zM224 245.333c0-53.020 42.98-96 96-96v0-128c0-35.2 28.8-64 64-64s64 28.8 64 64v128h128v-128c0-35.2 28.8-64 64-64s64 28.8 64 64v128c53.020 0 96 42.98 96 96v352h-576v-352zM798.216 661.331c-9.716 87.884-59.004 163.792-129.62 209.646l32.024 64.046c7.904 15.806 1.496 35.028-14.31 42.932s-35.030 1.496-42.932-14.312l-32.142-64.286-8.35 3.316c-28.568 9.502-59.122 14.66-90.886 14.66-31.762 0-62.316-5.158-90.888-14.656l-8.348-3.316-32.142 64.282c-7.904 15.808-27.128 22.212-42.932 14.312-15.808-7.904-22.214-27.126-14.312-42.932l32.022-64.046c-70.616-45.852-119.904-121.762-129.622-209.644v-32h574.222v31.998h-1.784zM416 725.333c-17.674 0-32 14.328-32 32 0 17.648 14.288 31.958 31.93 31.996 0.032 0 0.062-0.002 0.094-0.002 0.018 0 0.036 0.002 0.052 0.002 17.638-0.042 31.924-14.35 31.924-31.996 0-17.672-14.326-32-32-32zM608 725.333c-17.674 0-32 14.328-32 32 0 17.646 14.286 31.954 31.924 31.996 0.016 0 0.034-0.002 0.050-0.002 0.032 0 0.064 0.002 0.096 0.002 17.64-0.038 31.93-14.348 31.93-31.996 0-17.672-14.326-32-32-32z" />
<glyph unicode="&#xf099;" glyph-name="twitter" horiz-adv-x="951" d="M925.714 739.047q-38.286-56-92.571-95.429 0.571-8 0.571-24 0-74.286-21.714-148.286t-66-142-105.429-120.286-147.429-83.429-184.571-31.143q-154.857 0-283.429 82.857 20-2.286 44.571-2.286 128.571 0 229.143 78.857-60 1.143-107.429 36.857t-65.143 91.143q18.857-2.857 34.857-2.857 24.571 0 48.571 6.286-64 13.143-106 63.714t-42 117.429v2.286q38.857-21.714 83.429-23.429-37.714 25.143-60 65.714t-22.286 88q0 50.286 25.143 93.143 69.143-85.143 168.286-136.286t212.286-56.857q-4.571 21.714-4.571 42.286 0 76.571 54 130.571t130.571 54q80 0 134.857-58.286 62.286 12 117.143 44.571-21.143-65.714-81.143-101.714 53.143 5.714 106.286 28.571z" />
<glyph unicode="&#xf09a;" glyph-name="facebook" horiz-adv-x="585" d="M548 965.333v-150.857h-89.714q-49.143 0-66.286-20.571t-17.143-61.714v-108h167.429l-22.286-169.143h-145.143v-433.714h-174.857v433.714h-145.714v169.143h145.714v124.571q0 106.286 59.429 164.857t158.286 58.571q84 0 130.286-6.857z" />
<glyph unicode="&#xf09e;" glyph-name="rss" horiz-adv-x="805" d="M219.429 204.19q0-45.714-32-77.714t-77.714-32-77.714 32-32 77.714 32 77.714 77.714 32 77.714-32 32-77.714zM512 133.904q1.143-16-9.714-27.429-10.286-12-26.857-12h-77.143q-14.286 0-24.571 9.429t-11.429 23.714q-12.571 130.857-105.429 223.714t-223.714 105.429q-14.286 1.143-23.714 11.429t-9.429 24.571v77.143q0 16.571 12 26.857 9.714 9.714 24.571 9.714h2.857q91.429-7.429 174.857-46t148-103.714q65.143-64.571 103.714-148t46-174.857zM804.571 132.761q1.143-15.429-10.286-26.857-10.286-11.429-26.286-11.429h-81.714q-14.857 0-25.429 10t-11.143 24.286q-6.857 122.857-57.714 233.429t-132.286 192-192 132.286-233.429 58.286q-14.286 0.571-24.286 11.143t-10 24.857v81.714q0 16 11.429 26.286 10.286 10.286 25.143 10.286h1.714q149.714-7.429 286.571-68.571t243.143-168q106.857-106.286 168-243.143t68.571-286.571z" />
<glyph unicode="&#xf18a;" glyph-name="weibo" d="M385.714 238.476q12 19.429 6.286 39.429t-25.714 28.571q-19.429 8-41.714 0.571t-34.286-26.286q-12.571-19.429-7.429-39.143t24.571-28.857 42.571-1.429 35.714 27.143zM439.429 307.619q4.571 7.429 2 15.143t-10 10.571q-8 2.857-16.286-0.286t-12.286-10.571q-9.714-17.714 7.429-25.714 8-2.857 16.571 0.286t12.571 10.571zM538.857 246.476q-25.714-58.286-90.286-85.714t-128-6.857q-61.143 19.429-84.286 72.286t3.714 107.143q26.857 53.143 86.571 79.429t120.286 10.857q63.429-16.571 90.571-68.286t1.429-108.857zM717.143 337.904q-5.143 54.857-50.857 97.143t-119.143 62.286-156.857 12q-127.429-13.143-211.143-80.857t-75.714-151.143q5.143-54.857 50.857-97.143t119.143-62.286 156.857-12q127.429 13.143 211.143 80.857t75.714 151.143zM893.143 335.619q0-38.857-21.143-79.714t-62.286-78.286-96.286-67.143-129.143-47.429-154.571-17.714-157.143 19.143-137.429 53.143-98 86.286-37.143 114q0 65.714 39.714 140t112.857 147.429q96.571 96.571 195.143 134.857t140.857-4q37.143-36.571 11.429-119.429-2.286-8-0.571-11.429t5.714-4 8.286 0.286 7.714 2l3.429 1.143q79.429 33.714 140.571 33.714t87.429-34.857q25.714-36 0-101.714-1.143-7.429-2.571-11.429t2.571-7.143 6.857-4.286 9.714-3.429q32.571-10.286 58.857-26.857t45.714-46.571 19.429-66.571zM850.857 692.19q24-26.857 31.143-62t-3.714-67.143q-4.571-13.143-16.857-19.429t-25.429-2.286q-13.143 4.571-19.429 16.857t-2.286 25.429q11.429 36-13.714 63.429t-61.143 20q-13.714-2.857-25.714 4.571t-14.286 21.143q-2.857 13.714 4.571 25.429t21.143 14.571q34.286 7.429 68-3.143t57.714-37.429zM954.286 785.333q49.714-54.857 64.286-127.143t-7.714-138q-5.143-15.429-19.429-22.857t-29.714-2.286-22.857 19.429-2.857 29.714q16 46.857 5.714 98.286t-45.714 90.286q-35.429 39.429-84.571 54.571t-98.857 4.857q-16-3.429-29.714 5.429t-17.143 24.857 5.429 29.429 24.857 16.857q70.286 14.857 139.429-6.571t118.857-76.857z" />
<glyph unicode="&#xf1d7;" glyph-name="qq" d="M154.286 511.619q-4.571 10.857-4.571 29.714 0 11.429 6.286 28t13.714 25.714q-0.571 12.571 4.286 30.286t12.857 24.571q0 79.429 52.857 164.857t124.286 119.714q79.429 37.714 185.143 37.714 76 0 152-31.429 28-12 51.429-27.429t40.571-32 31.429-38.857 24-42.286 18.571-48.286 14.571-51.143 12.571-56l0.571-2.857q31.429-47.429 31.429-85.714 0-8-5.143-22.857t-5.143-21.714q0-0.571 0.857-2t2-2.857 1.143-2q44-65.143 68.857-122.571t24.857-119.143q0-24.571-11.143-57.143t-31.714-32.571q-5.143 0-11.143 4.286t-10.857 10-10.857 14.857-9.143 15.143-7.714 14.857-5.143 10q-0.571 0.571-1.714 0.571l-2.857-2.286q-33.714-88-75.429-127.429 11.429-11.429 35.143-22t39.429-23.714 20.286-37.143q-1.143-2.286-2.286-9.143t-4-10.286q-36.571-55.429-172.571-55.429-30.286 0-63.143 5.143t-56 11.429-59.714 17.143q-8.571 2.857-13.143 4-8 2.286-26.286 2.571t-22.857 0.857q-23.429-25.714-72.857-37.143t-96.286-11.429q-20 0-39.429 0.857t-53.143 5.143-57.714 11.714-42.571 22.857-18.571 36.571q0 22.857 5.714 34t23.429 27.714q6.286 1.143 23.143 7.429t28.286 6.857q2.286 0 8 1.143 1.143 1.143 1.143 2.286l-1.143 1.714q-27.429 6.286-61.714 60.286t-41.714 89.429l-2.857 1.714q-2.286 0-6.857-11.429-10.286-23.429-31.143-42.571t-44.286-21.429h-0.571q-2.286 0-3.429 2.571t-2.857 3.143q-13.143 30.857-13.143 57.143 0 157.143 144 266.286z" />
<glyph unicode="&#xf1d8;" glyph-name="weixin-fill" horiz-adv-x="1170" d="M331.429 708.761q0 23.429-14.286 37.714t-37.714 14.286q-24.571 0-43.429-14.571t-18.857-37.429q0-22.286 18.857-36.857t43.429-14.571q23.429 0 37.714 14t14.286 37.429zM756 419.047q0 16-14.571 28.571t-37.429 12.571q-15.429 0-28.286-12.857t-12.857-28.286q0-16 12.857-28.857t28.286-12.857q22.857 0 37.429 12.571t14.571 29.143zM621.143 708.761q0 23.429-14 37.714t-37.429 14.286q-24.571 0-43.429-14.571t-18.857-37.429q0-22.286 18.857-36.857t43.429-14.571q23.429 0 37.429 14t14 37.429zM984 419.047q0 16-14.857 28.571t-37.143 12.571q-15.429 0-28.286-12.857t-12.857-28.286q0-16 12.857-28.857t28.286-12.857q22.286 0 37.143 12.571t14.857 29.143zM832 645.904q-17.714 2.286-40 2.286-96.571 0-177.714-44t-127.714-119.143-46.571-164.286q0-44.571 13.143-86.857-20-1.714-38.857-1.714-14.857 0-28.571 0.857t-31.429 3.714-25.429 4-31.143 6-28.571 6l-144.571-72.571 41.143 124.571q-165.714 116-165.714 280 0 96.571 55.714 177.714t150.857 127.714 207.714 46.571q100.571 0 190-37.714t149.714-104.286 78-148.857zM1170.286 325.333q0-66.857-39.143-127.714t-106-110.571l31.429-103.429-113.714 62.286q-85.714-21.143-124.571-21.143-96.571 0-177.714 40.286t-127.714 109.429-46.571 150.857 46.571 150.857 127.714 109.429 177.714 40.286q92 0 173.143-40.286t130-109.714 48.857-150.571z" />
</font>
</defs>
</svg>
